  0
SECTION
  2
HEADER
  9
$ACADVER
  1
AC1014
  9
$ACADMAINTVER
 70
     9
  9
$DWGCODEPAGE
  3
ANSI_1252
  9
$INSBASE
 10
0.0
 20
0.0
 30
0.0
  9
$EXTMIN
 10
1.000000000000000E+20
 20
1.000000000000000E+20
 30
1.000000000000000E+20
  9
$EXTMAX
 10
-1.000000000000000E+20
 20
-1.000000000000000E+20
 30
-1.000000000000000E+20
  9
$LIMMIN
 10
0.0
 20
0.0
  9
$LIMMAX
 10
420.0
 20
297.0
  9
$ORTHOMODE
 70
     1
  9
$REGENMODE
 70
     1
  9
$FILLMODE
 70
     1
  9
$QTEXTMODE
 70
     0
  9
$MIRRTEXT
 70
     1
  9
$DRAGMODE
 70
     2
  9
$LTSCALE
 40
25.0
  9
$OSMODE
 70
    37
  9
$ATTMODE
 70
     1
  9
$TEXTSIZE
 40
3.5
  9
$TRACEWID
 40
1.0
  9
$TEXTSTYLE
  7
STANDARD
  9
$CLAYER
  8
11
  9
$CELTYPE
  6
BYLAYER
  9
$CECOLOR
 62
   256
  9
$CELTSCALE
 40
1.0
  9
$DELOBJ
 70
     1
  9
$DISPSILH
 70
     0
  9
$DIMSCALE
 40
1.0
  9
$DIMASZ
 40
12.0
  9
$DIMEXO
 40
0.875
  9
$DIMDLI
 40
5.0
  9
$DIMRND
 40
0.0
  9
$DIMDLE
 40
1.5
  9
$DIMEXE
 40
1.75
  9
$DIMTP
 40
0.0
  9
$DIMTM
 40
0.0
  9
$DIMTXT
 40
3.5
  9
$DIMCEN
 40
3.5
  9
$DIMTSZ
 40
0.0
  9
$DIMTOL
 70
     0
  9
$DIMLIM
 70
     0
  9
$DIMTIH
 70
     0
  9
$DIMTOH
 70
     0
  9
$DIMSE1
 70
     0
  9
$DIMSE2
 70
     0
  9
$DIMTAD
 70
     1
  9
$DIMZIN
 70
     8
  9
$DIMBLK
  1

  9
$DIMASO
 70
     1
  9
$DIMSHO
 70
     1
  9
$DIMPOST
  1

  9
$DIMAPOST
  1

  9
$DIMALT
 70
     0
  9
$DIMALTD
 70
     4
  9
$DIMALTF
 40
0.0394
  9
$DIMLFAC
 40
1.0
  9
$DIMTOFL
 70
     1
  9
$DIMTVP
 40
0.0
  9
$DIMTIX
 70
     0
  9
$DIMSOXD
 70
     0
  9
$DIMSAH
 70
     0
  9
$DIMBLK1
  1

  9
$DIMBLK2
  1

  9
$DIMSTYLE
  2
ISO-35
  9
$DIMCLRD
 70
   256
  9
$DIMCLRE
 70
   256
  9
$DIMCLRT
 70
     6
  9
$DIMTFAC
 40
0.7
  9
$DIMGAP
 40
0.875
  9
$DIMJUST
 70
     0
  9
$DIMSD1
 70
     0
  9
$DIMSD2
 70
     0
  9
$DIMTOLJ
 70
     1
  9
$DIMTZIN
 70
     0
  9
$DIMALTZ
 70
     0
  9
$DIMALTTZ
 70
     0
  9
$DIMFIT
 70
     3
  9
$DIMUPT
 70
     0
  9
$DIMUNIT
 70
     8
  9
$DIMDEC
 70
     2
  9
$DIMTDEC
 70
     2
  9
$DIMALTU
 70
     8
  9
$DIMALTTD
 70
     4
  9
$DIMTXSTY
  7
STANDARD
  9
$DIMAUNIT
 70
     0
  9
$LUNITS
 70
     2
  9
$LUPREC
 70
     4
  9
$SKETCHINC
 40
1.0
  9
$FILLETRAD
 40
10.0
  9
$AUNITS
 70
     0
  9
$AUPREC
 70
     0
  9
$MENU
  1
.
  9
$ELEVATION
 40
0.0
  9
$PELEVATION
 40
0.0
  9
$THICKNESS
 40
0.0
  9
$LIMCHECK
 70
     0
  9
$BLIPMODE
 70
     0
  9
$CHAMFERA
 40
10.0
  9
$CHAMFERB
 40
10.0
  9
$CHAMFERC
 40
20.0
  9
$CHAMFERD
 40
0.0
  9
$SKPOLY
 70
     1
  9
$TDCREATE
 40
2451893.359713171
  9
$TDUPDATE
 40
2451894.475121296
  9
$TDINDWG
 40
0.1090554282
  9
$TDUSRTIMER
 40
0.1088279051
  9
$USRTIMER
 70
     1
  9
$ANGBASE
 50
0.0
  9
$ANGDIR
 70
     0
  9
$PDMODE
 70
     0
  9
$PDSIZE
 40
0.0
  9
$PLINEWID
 40
0.0
  9
$COORDS
 70
     2
  9
$SPLFRAME
 70
     0
  9
$SPLINETYPE
 70
     6
  9
$SPLINESEGS
 70
     8
  9
$ATTDIA
 70
     0
  9
$ATTREQ
 70
     1
  9
$HANDLING
 70
 12289
  9
$HANDSEED
  5
21C7
  9
$SURFTAB1
 70
     6
  9
$SURFTAB2
 70
     6
  9
$SURFTYPE
 70
     6
  9
$SURFU
 70
     6
  9
$SURFV
 70
     6
  9
$UCSNAME
  2

  9
$UCSORG
 10
757.1549836096192
 20
248.9230960200166
 30
21.0
  9
$UCSXDIR
 10
1.0
 20
0.0
 30
0.0
  9
$UCSYDIR
 10
0.0
 20
1.0
 30
0.0
  9
$PUCSNAME
  2

  9
$PUCSORG
 10
0.0
 20
0.0
 30
0.0
  9
$PUCSXDIR
 10
1.0
 20
0.0
 30
0.0
  9
$PUCSYDIR
 10
0.0
 20
1.0
 30
0.0
  9
$USERI1
 70
     0
  9
$USERI2
 70
     0
  9
$USERI3
 70
     0
  9
$USERI4
 70
     0
  9
$USERI5
 70
     0
  9
$USERR1
 40
0.0
  9
$USERR2
 40
0.0
  9
$USERR3
 40
0.0
  9
$USERR4
 40
0.0
  9
$USERR5
 40
0.0
  9
$WORLDVIEW
 70
     1
  9
$SHADEDGE
 70
     3
  9
$SHADEDIF
 70
    70
  9
$TILEMODE
 70
     0
  9
$MAXACTVP
 70
    48
  9
$PINSBASE
 10
0.0
 20
0.0
 30
0.0
  9
$PLIMCHECK
 70
     0
  9
$PEXTMIN
 10
-810.5442054356144
 20
-705.3247023136236
 30
0.0
  9
$PEXTMAX
 10
1108.290136098503
 20
705.3905084131034
 30
0.0
  9
$PLIMMIN
 10
-0.2500002402958907
 20
-0.2499999962453767
  9
$PLIMMAX
 10
10.74999951940821
 20
8.249999763458731
  9
$UNITMODE
 70
     0
  9
$VISRETAIN
 70
     1
  9
$PLINEGEN
 70
     0
  9
$PSLTSCALE
 70
     1
  9
$TREEDEPTH
 70
  3020
  9
$PICKSTYLE
 70
     1
  9
$CMLSTYLE
  2
STANDARD
  9
$CMLJUST
 70
     0
  9
$CMLSCALE
 40
1.0
  9
$PROXYGRAPHICS
 70
     1
  9
$MEASUREMENT
 70
     1
  0
ENDSEC
  0
SECTION
  2
CLASSES
  0
CLASS
  1
DICTIONARYVAR
  2
AcDbDictionaryVar
  3
AutoCAD 2000
 90
        0
280
     0
281
     0
  0
CLASS
  1
ACMESTATEMGR
  2
AcMeStateMgr
  3
AcMeServices
 90
        0
280
     0
281
     0
  0
CLASS
  1
ACMESCOPE
  2
AcMeScope
  3
AcMeServices
 90
        0
280
     0
281
     0
  0
CLASS
  1
ACMECOMMANDHISTORY
  2
AcMeCommandHistory
  3
AcMeServices
 90
        0
280
     0
281
     0
  0
CLASS
  1
AcRfInsAdjusterMgr
  2
AcRfInsAdjusterMgr
  3
AcMeServices
 90
        0
280
     0
281
     0
  0
CLASS
  1
ACMEDRAWINGMAN
  2
AcMeDrawingMan
  3
AcMeServices
 90
        0
280
     0
281
     0
  0
CLASS
  1
AMATTR
  2
AcMeAttribute
  3
AcMeServices
 90
        0
280
     0
281
     0
  0
CLASS
  1
ACMEBOMCOLUMN
  2
AcMeBOMColumn
  3
AcMeServices
 90
        0
280
     0
281
     0
  0
CLASS
  1
ACANBOMCONF
  2
AcMeBOMConf
  3
AcMeServices
 90
        0
280
     0
281
     0
  0
CLASS
  1
ACMEBOMTABLE
  2
AcMeBOMTable
  3
AcMeServices
 90
        0
280
     0
281
     0
  0
CLASS
  1
ACMEBOMENTRY
  2
AcMeBOMEntry
  3
AcMeServices
 90
        0
280
     0
281
     0
  0
CLASS
  1
ACMEVIEW
  2
AcMeView
  3
AcMeServices
 90
        0
280
     0
281
     0
  0
CLASS
  1
ACGREFMASTER
  2
AcGrefMaster
  3
AcAttribServices
 90
        0
280
     0
281
     0
  0
CLASS
  1
AmiMaster
  2
AmiMaster
  3
AmiServices
 90
        0
280
     0
281
     0
  0
CLASS
  1
ACASGREFMASTER
  2
AcAsGrefMaster
  3
AutoSurfResolverServices
 90
        0
280
     0
281
     0
  0
CLASS
  1
ADAPPL
  2
AcAdAppl
  3
DesignerServices
 90
        0
280
     0
281
     0
  0
CLASS
  1
DEPMGR
  2
AcAdDepMgr
  3
DesignerServices
 90
        0
280
     0
281
     0
  0
CLASS
  1
PARAMMGR
  2
AcAdParamMgr
  3
DesignerServices
 90
        0
280
     0
281
     0
  0
CLASS
  1
PARAMSCOPE
  2
AcAdParamScope
  3
DesignerServices
 90
        0
280
     0
281
     0
  0
CLASS
  1
ACIMSYSVARMAN
  2
AcImSysVarManager
  3
AcMeServices
 90
        0
280
     0
281
     0
  0
CLASS
  1
ACIMINTSYSVAR
  2
AcImIntSysVar
  3
AcMeServices
 90
        0
280
     0
281
     0
  0
CLASS
  1
ACIMREALSYSVAR
  2
AcImRealSysVar
  3
AcMeServices
 90
        0
280
     0
281
     0
  0
CLASS
  1
ACIMSTRSYSVAR
  2
AcImStrSysVar
  3
AcMeServices
 90
        0
280
     0
281
     0
  0
CLASS
  1
NAMEDAPPL
  2
AcAdNamedAppl
  3
DesignerServices
 90
        0
280
     0
281
     0
  0
CLASS
  1
ADHNTMPLT
  2
AdHoleNoteTemplateMgr
  3
DesignerServices
 90
        0
280
     0
281
     0
  0
CLASS
  1
AM_HNTEMPLATE_MGR_NAME
  2
AdHoleNoteTemplateMgrName
  3
DesignerServices
 90
        0
280
     0
281
     0
  0
CLASS
  1
AcAdGrefModule
  2
AcAdGrefModule
  3
AdGrefServices
 90
        0
280
     0
281
     0
  0
CLASS
  1
AM_DRAWING_MGR
  2
AcDmDwgMgr
  3
AcMechDwgViewMgmt
 90
        0
280
     0
281
     0
  0
CLASS
  1
AM_DWG_DOCUMENT
  2
AcDmDwgDocument
  3
AcMechDwgViewMgmt
 90
        0
280
     0
281
     0
  0
CLASS
  1
AM_DWG_SHEET
  2
AcDmSheet
  3
AcMechDwgViewMgmt
 90
        0
280
     0
281
     0
  0
CLASS
  1
AM_VIEWDIMPARMAP
  2
AcDmViewDimParMap
  3
AcMechDwgViewMgmt
 90
        0
280
     0
281
     0
  0
CLASS
  1
AM_DWGMGR_NAME
  2
AcDmDwgMgrName
  3
AcMechDwgViewMgmt
 90
        0
280
     0
281
     0
  0
CLASS
  1
ACAMPROJECT
  2
AcAmProject
  3
DesignerAssemblies
 90
        0
280
     0
281
     0
  0
CLASS
  1
ACAMGRCOMPSET
  2
AcAmGrCompSet
  3
DesignerAssemblies
 90
        0
280
     0
281
     0
  0
CLASS
  1
ACAMGRCOMPDEFSET
  2
AcAmGrCompDefSet
  3
DesignerAssemblies
 90
        0
280
     0
281
     0
  0
CLASS
  1
ACAMGRCOMPDEF
  2
AcAmGrCompDef
  3
DesignerAssemblies
 90
        0
280
     0
281
     0
  0
CLASS
  1
ACCMCONTEXT
  2
AcCmContext
  3
DesignerAssemblies
 90
        0
280
     0
281
     0
  0
CLASS
  1
ACAMCOMPDEF
  2
AcAmCompDef
  3
DesignerAssemblies
 90
        0
280
     0
281
     0
  0
CLASS
  1
ACAMCOMPDEFMGR
  2
AcAmCompDefMgr
  3
DesignerAssemblies
 90
        0
280
     0
281
     0
  0
CLASS
  1
AMCONTEXTMGR
  2
AcAmContextMgr
  3
DesignerAssemblies
 90
        0
280
     0
281
     0
  0
CLASS
  1
ACAMCONTEXTMODELER
  2
AcAmContextModeler
  3
DesignerAssemblies
 90
        0
280
     0
281
     0
  0
CLASS
  1
ACDMVIEWGEOM
  2
AcDmViewGeometry
  3
AcMechDwgViewMgmt
 90
        0
280
     0
281
     1
  0
CLASS
  1
CBrowserAppObject
  2
CBrowserAppObject
  3
McadcomServices
 90
        0
280
     0
281
     0
  0
CLASS
  1
IM_STATIC_MAN
  2
AcImStaticVarManager
  3
AcMeServices
 90
        0
280
     0
281
     0
  0
CLASS
  1
ASAPP
  2
AcAsAppObject
  3
AutoSurfServices
 90
        0
280
     0
281
     0
  0
CLASS
  1
ACIMDBLSTATICVAR
  2
AcImDblStaticVar
  3
AcMeServices
 90
        0
280
     0
281
     0
  0
CLASS
  1
ACIMSTRSTATICVAR
  2
AcImStrStaticVar
  3
AcMeServices
 90
        0
280
     0
281
     0
  0
CLASS
  1
ACIMINTSTATICVAR
  2
AcImIntStaticVar
  3
AcMeServices
 90
        0
280
     0
281
     0
  0
CLASS
  1
CATALOGSTATE
  2
AcAmCatalogState
  3
DesignerAssemblies
 90
        0
280
     0
281
     0
  0
CLASS
  1
DM_PLACEHOLDER
  2
AcDmSelsetPlaceholder
  3
AcMechDwgViewMgmt
 90
        0
280
     0
281
     0
  0
CLASS
  1
LAYER_INDEX
  2
AcDbLayerIndex
  3
AutoCAD 2000
 90
        0
280
     0
281
     0
  0
CLASS
  1
IDBUFFER
  2
AcDbIdBuffer
  3
AutoCAD 2000
 90
        0
280
     0
281
     0
  0
CLASS
  1
ACMSTANDARDJIS
  2
AcmStandardJIS
  3
"AcmSymBB|Product Description: AutoCAD Mechanical 2000|Company: Autodesk"
 90
        0
280
     0
281
     0
  0
CLASS
  1
ACMSTANDARDANSI
  2
AcmStandardANSI
  3
"AcmSymBB|Product Description: AutoCAD Mechanical 2000|Company: Autodesk"
 90
        0
280
     0
281
     0
  0
CLASS
  1
ACMSTANDARDBSI
  2
AcmStandardBSI
  3
"AcmSymBB|Product Description: AutoCAD Mechanical 2000|Company: Autodesk"
 90
        0
280
     0
281
     0
  0
CLASS
  1
ACMSTANDARDDIN
  2
AcmStandardDIN
  3
"AcmSymBB|Product Description: AutoCAD Mechanical 2000|Company: Autodesk"
 90
        0
280
     0
281
     0
  0
CLASS
  1
ACMSTANDARDISO
  2
AcmStandardISO
  3
"AcmSymBB|Product Description: AutoCAD Mechanical 2000|Company: Autodesk"
 90
        0
280
     0
281
     0
  0
CLASS
  1
ACDBDICTIONARYWDFLT
  2
AcDbDictionaryWithDefault
  3
AutoCAD 2000
 90
        0
280
     0
281
     0
  0
CLASS
  1
ACDBPLACEHOLDER
  2
AcDbPlaceHolder
  3
AutoCAD 2000
 90
        0
280
     0
281
     0
  0
CLASS
  1
LAYOUT
  2
AcDbLayout
  3
AutoCAD 2000
 90
        0
280
     0
281
     0
  0
CLASS
  1
ACME_DOCUMENT
  2
AcMeDbDoc
  3
AcMeServices
 90
        0
280
     0
281
     0
  0
CLASS
  1
AMGSETTINGSOBJ
  2
AmgSettingsObj
  3
"AcadM|Product Description: AutoCAD Mechanical 2000|Company: Autodesk"
 90
        0
280
     0
281
     0
  0
CLASS
  1
AMGOBJPROPCFG
  2
AmgObjPropCfg
  3
"AmgLay|Product Description: AutoCAD Mechanical 2000|Company: Autodesk"
 90
        1
280
     0
281
     0
  0
CLASS
  1
ACDBENTITYCACHE
  2
AcMeEntityCache
  3
AcMeServices
 90
        0
280
     0
281
     0
  0
CLASS
  1
GSMANAGER
  2
AcMeGSManager
  3
AcMeServices
 90
        0
280
     0
281
     0
  0
CLASS
  1
AmdtInternalReactor
  2
AmdtInternalReactor
  3
AcMeServices
 90
        0
280
     0
281
     0
  0
CLASS
  1
ACME_DATABASE
  2
AcMeDbDatabase
  3
AcMeServices
 90
        0
280
     0
281
     0
  0
CLASS
  1
ACGREFMASTER
  2
AcGrefacadMaster
  3
AcGrefServices
 90
        0
280
     0
281
     0
  0
CLASS
  1
AMDTMENUSTATEMGR
  2
AmdtMenuStateMgr
  3
McadcomServices
 90
        0
280
     0
281
     0
  0
CLASS
  1
AMDTMCOMMENUSTATE
  2
AmdtMcomMenuState
  3
McadcomServices
 90
        0
280
     0
281
     0
  0
CLASS
  1
MAPIADMODULE
  2
MApiAdModule
  3
MApiAdServices
 90
        0
280
     0
281
     0
  0
CLASS
  1
AMDTDMMENUSTATE
  2
AmdtDmMenuState
  3
AcMechDwgViewMgmt
 90
        0
280
     0
281
     0
  0
CLASS
  1
AMDTADMENUSTATE
  2
AmdtAdMenuState
  3
DesignerServices
 90
        0
280
     0
281
     0
  0
CLASS
  1
AMDTAMMENUSTATE
  2
AmdtAmMenuState
  3
DesignerAssemblies
 90
        0
280
     0
281
     0
  0
CLASS
  1
ACMDATADICTIONARY
  2
AcmDataDictionary
  3
"AcmSymBB|Product Description: AutoCAD Mechanical 2000|Company: Autodesk"
 90
        0
280
     0
281
     0
  0
CLASS
  1
ACMDATAENTRYBLOCK
  2
AcmDataEntryBlock
  3
"AcmSymBB|Product Description: AutoCAD Mechanical 2000|Company: Autodesk"
 90
        0
280
     0
281
     0
  0
CLASS
  1
ACMSURFSTANDARDJIS
  2
AcmSurfTextStdJIS
  3
"AcmSymBB|Product Description: AutoCAD Mechanical 2000|Company: Autodesk"
 90
        0
280
     0
281
     0
  0
CLASS
  1
ACMFCFSTANDARDJIS
  2
AcmFCFStdJIS
  3
"AcmSymBB|Product Description: AutoCAD Mechanical 2000|Company: Autodesk"
 90
        0
280
     0
281
     0
  0
CLASS
  1
ACMWELDSTANDARDJIS
  2
AcmWeldingStdJIS
  3
"AcmSymBB|Product Description: AutoCAD Mechanical 2000|Company: Autodesk"
 90
        0
280
     0
281
     0
  0
CLASS
  1
ACMIDSTANDARDJIS
  2
AcmIdStdJIS
  3
"AcmSymBB|Product Description: AutoCAD Mechanical 2000|Company: Autodesk"
 90
        0
280
     0
281
     0
  0
CLASS
  1
ACMDATUMSTANDARDJIS
  2
AcmDatumStdJIS
  3
"AcmSymBB|Product Description: AutoCAD Mechanical 2000|Company: Autodesk"
 90
        0
280
     0
281
     0
  0
CLASS
  1
ACMBOMSTANDARDJIS
  2
AcmBOMStdJIS
  3
"AcmSymBB|Product Description: AutoCAD Mechanical 2000|Company: Autodesk"
 90
        0
280
     0
281
     0
  0
CLASS
  1
ACMSURFSTANDARDANSI
  2
AcmSurfTextStdANSI
  3
"AcmSymBB|Product Description: AutoCAD Mechanical 2000|Company: Autodesk"
 90
        0
280
     0
281
     0
  0
CLASS
  1
ACMFCFSTANDARDANSI
  2
AcmFCFStdANSI
  3
"AcmSymBB|Product Description: AutoCAD Mechanical 2000|Company: Autodesk"
 90
        0
280
     0
281
     0
  0
CLASS
  1
ACMWELDSTANDARDANSI
  2
AcmWeldingStdANSI
  3
"AcmSymBB|Product Description: AutoCAD Mechanical 2000|Company: Autodesk"
 90
        0
280
     0
281
     0
  0
CLASS
  1
ACMIDSTANDARDANSI
  2
AcmIdStdANSI
  3
"AcmSymBB|Product Description: AutoCAD Mechanical 2000|Company: Autodesk"
 90
        0
280
     0
281
     0
  0
CLASS
  1
ACMDATUMSTANDARDANSI
  2
AcmDatumStdANSI
  3
"AcmSymBB|Product Description: AutoCAD Mechanical 2000|Company: Autodesk"
 90
        0
280
     0
281
     0
  0
CLASS
  1
ACMBOMSTANDARDANSI
  2
AcmBOMStdANSI
  3
"AcmSymBB|Product Description: AutoCAD Mechanical 2000|Company: Autodesk"
 90
        0
280
     0
281
     0
  0
CLASS
  1
ACMSURFSTANDARDBSI
  2
AcmSurfTextStdBSI
  3
"AcmSymBB|Product Description: AutoCAD Mechanical 2000|Company: Autodesk"
 90
        0
280
     0
281
     0
  0
CLASS
  1
ACMFCFSTANDARDBSI
  2
AcmFCFStdBSI
  3
"AcmSymBB|Product Description: AutoCAD Mechanical 2000|Company: Autodesk"
 90
        0
280
     0
281
     0
  0
CLASS
  1
ACMWELDSTANDARDBSI
  2
AcmWeldingStdBSI
  3
"AcmSymBB|Product Description: AutoCAD Mechanical 2000|Company: Autodesk"
 90
        0
280
     0
281
     0
  0
CLASS
  1
ACMIDSTANDARDBSI
  2
AcmIdStdBSI
  3
"AcmSymBB|Product Description: AutoCAD Mechanical 2000|Company: Autodesk"
 90
        0
280
     0
281
     0
  0
CLASS
  1
ACMDATUMSTANDARDBSI
  2
AcmDatumStdBSI
  3
"AcmSymBB|Product Description: AutoCAD Mechanical 2000|Company: Autodesk"
 90
        0
280
     0
281
     0
  0
CLASS
  1
ACMBOMSTANDARDBSI
  2
AcmBOMStdBSI
  3
"AcmSymBB|Product Description: AutoCAD Mechanical 2000|Company: Autodesk"
 90
        0
280
     0
281
     0
  0
CLASS
  1
AMDTEDGESTANDARDDIN
  2
AmdtEdgeStdDIN
  3
"AcmSymBB|Product Description: AutoCAD Mechanical 2000|Company: Autodesk"
 90
        0
280
     0
281
     0
  0
CLASS
  1
ACMSURFSTANDARDDIN
  2
AcmSurfTextStdDIN
  3
"AcmSymBB|Product Description: AutoCAD Mechanical 2000|Company: Autodesk"
 90
        0
280
     0
281
     0
  0
CLASS
  1
ACMFCFSTANDARDDIN
  2
AcmFCFStdDIN
  3
"AcmSymBB|Product Description: AutoCAD Mechanical 2000|Company: Autodesk"
 90
        0
280
     0
281
     0
  0
CLASS
  1
ACMWELDSTANDARDDIN
  2
AcmWeldingStdDIN
  3
"AcmSymBB|Product Description: AutoCAD Mechanical 2000|Company: Autodesk"
 90
        0
280
     0
281
     0
  0
CLASS
  1
ACMIDSTANDARDDIN
  2
AcmIdStdDIN
  3
"AcmSymBB|Product Description: AutoCAD Mechanical 2000|Company: Autodesk"
 90
        0
280
     0
281
     0
  0
CLASS
  1
ACMDATUMSTANDARDDIN
  2
AcmDatumStdDIN
  3
"AcmSymBB|Product Description: AutoCAD Mechanical 2000|Company: Autodesk"
 90
        0
280
     0
281
     0
  0
CLASS
  1
ACMBOMSTANDARDDIN
  2
AcmBOMStdDIN
  3
"AcmSymBB|Product Description: AutoCAD Mechanical 2000|Company: Autodesk"
 90
        0
280
     0
281
     0
  0
CLASS
  1
ACMSURFSTANDARDISO
  2
AcmSurfTextStdISO
  3
"AcmSymBB|Product Description: AutoCAD Mechanical 2000|Company: Autodesk"
 90
        0
280
     0
281
     0
  0
CLASS
  1
ACMFCFSTANDARDISO
  2
AcmFCFStdISO
  3
"AcmSymBB|Product Description: AutoCAD Mechanical 2000|Company: Autodesk"
 90
        0
280
     0
281
     0
  0
CLASS
  1
ACMWELDSTANDARDISO
  2
AcmWeldingStdISO
  3
"AcmSymBB|Product Description: AutoCAD Mechanical 2000|Company: Autodesk"
 90
        0
280
     0
281
     0
  0
CLASS
  1
ACMIDSTANDARDISO
  2
AcmIdStdISO
  3
"AcmSymBB|Product Description: AutoCAD Mechanical 2000|Company: Autodesk"
 90
        0
280
     0
281
     0
  0
CLASS
  1
ACMDATUMSTANDARDISO
  2
AcmDatumStdISO
  3
"AcmSymBB|Product Description: AutoCAD Mechanical 2000|Company: Autodesk"
 90
        0
280
     0
281
     0
  0
CLASS
  1
ACMBOMSTANDARDISO
  2
AcmBOMStdISO
  3
"AcmSymBB|Product Description: AutoCAD Mechanical 2000|Company: Autodesk"
 90
        0
280
     0
281
     0
  0
CLASS
  1
AMDTBROWSERDBTAB
  2
AmdtBrowserDbTab
  3
McadcomServices
 90
        0
280
     0
281
     0
  0
CLASS
  1
ACAMGFILTERDAT
  2
AcAmgFilterDat
  3
"AcadM|Product Description: AutoCAD Mechanical 2000|Company: Autodesk"
 90
        0
280
     0
281
     0
  0
CLASS
  1
MAPIAMMOUDLE
  2
MApiAmModule
  3
MApiAmServices
 90
        0
280
     0
281
     0
  0
CLASS
  1
ADPART
  2
AcAdPart
  3
DesignerServices
 90
        0
280
     0
281
     1
  0
CLASS
  1
ADBASE
  2
AcAdBase
  3
DesignerServices
 90
        0
280
     0
281
     0
  0
CLASS
  1
BODYID
  2
AcAdBodyId
  3
DesignerServices
 90
        0
280
     0
281
     0
  0
CLASS
  1
WORKPLANEDISPLAYMGR
  2
AcAdDisplayMgr
  3
DesignerServices
 90
        0
280
     0
281
     0
  0
CLASS
  1
ACCMBODY
  2
AcCmBody
  3
DesignerAssemblies
 90
        0
280
     0
281
     0
  0
CLASS
  1
ACAMCOMPENT
  2
AcAmCompEnt
  3
DesignerAssemblies
 90
        0
280
     0
281
     1
  0
CLASS
  1
ACAMCOMPFEEDBACK
  2
AcAmCompFeedback
  3
DesignerAssemblies
 90
        0
280
     0
281
     0
  0
CLASS
  1
ACAMCOMP
  2
AcAmComp
  3
DesignerAssemblies
 90
        0
280
     0
281
     0
  0
CLASS
  1
ACAMCOMPENTCLONE
  2
AcAmCompEntClone
  3
DesignerAssemblies
 90
        0
280
     0
281
     1
  0
CLASS
  1
ACAMCLONEREACTOR
  2
AcAmGrCompCloneReactor
  3
DesignerAssemblies
 90
        0
280
     0
281
     0
  0
CLASS
  1
ADDATUMPLANEABS
  2
AcAdDatumPlaneAbs
  3
DesignerServices
 90
        0
280
     0
281
     0
  0
CLASS
  1
ADDATUMAXISABS
  2
AcAdDatumAxisAbs
  3
DesignerServices
 90
        0
280
     0
281
     0
  0
CLASS
  1
ADDATUMORIENTEDPLANE
  2
AcAdDatumOrientedPlane
  3
DesignerServices
 90
        0
280
     0
281
     0
  0
CLASS
  1
ACAD_CIRCLE
  2
AcAdCircle
  3
DesignerServices
 90
        0
280
     0
281
     1
  0
CLASS
  1
ACADCIRCLEACAD
  2
AcAdVirtualCircleAcad
  3
DesignerServices
 90
        0
280
     0
281
     0
  0
CLASS
  1
ACADREFLINEACAD
  2
AcAdVirtualReferenceLine
  3
DesignerServices
 90
        0
280
     0
281
     0
  0
CLASS
  1
ACADCONSLINE
  2
AcAdConstrainedLine
  3
DesignerServices
 90
        0
280
     0
281
     0
  0
CLASS
  1
ACADCONSGROUP
  2
AcAdConstraintGroup
  3
DesignerServices
 90
        0
280
     0
281
     0
  0
CLASS
  1
ACADCONSCIRCLE
  2
AcAdConstrainedCircle
  3
DesignerServices
 90
        0
280
     0
281
     0
  0
CLASS
  1
ACADCONSPOINT
  2
AcAdConstrainedPoint
  3
DesignerServices
 90
        0
280
     0
281
     0
  0
CLASS
  1
ACADIMPPTACAD
  2
AcAdVirtualImplicitPoint
  3
DesignerServices
 90
        0
280
     0
281
     0
  0
CLASS
  1
ADCTRPTCNS
  2
AcAdCenterPointConstr
  3
DesignerServices
 90
        0
280
     0
281
     0
  0
CLASS
  1
ADCLPROF2D
  2
AcAdClosedProfile2d
  3
DesignerServices
 90
        0
280
     0
281
     0
  0
CLASS
  1
ACAD_FIXCONSTRAINT
  2
AcAdFixedConstraint
  3
DesignerServices
 90
        0
280
     0
281
     0
  0
CLASS
  1
ADCONSTDSP
  2
AcAdConstraintDisplayTag
  3
DesignerServices
 90
        0
280
     0
281
     1
  0
CLASS
  1
ADCONSDISP
  2
AcAdConstraintDisplay
  3
DesignerServices
 90
        0
280
     0
281
     1
  0
CLASS
  1
PARAM
  2
AcAdParam
  3
DesignerServices
 90
        0
280
     0
281
     0
  0
CLASS
  1
ADDIACNS
  2
AcAdAcadDiameterConstr
  3
DesignerServices
 90
        0
280
     0
281
     0
  0
CLASS
  1
ACMELINEARARROW
  2
AcImLinearArrowDisplay
  3
AcMeServices
 90
        0
280
     0
281
     1
  0
CLASS
  1
ACADVOLFEATWITHTRIM
  2
AcAdVolFeatWithTrim
  3
DesignerServices
 90
        0
280
     0
281
     0
  0
CLASS
  1
DEPEDGEFEATUREORDERING
  2
AcAdDepEdgeFeatureOrdering
  3
DesignerServices
 90
        0
280
     0
281
     0
  0
CLASS
  1
ADPLANEID
  2
AcAdPlaneId
  3
DesignerServices
 90
        0
280
     0
281
     0
  0
CLASS
  1
ADDATUMPLANEFACE
  2
AcAdDatumPlaneFace
  3
DesignerServices
 90
        0
280
     0
281
     0
  0
CLASS
  1
ACMEPLINE
  2
AcImPlineDisplay
  3
AcMeServices
 90
        0
280
     0
281
     1
  0
CLASS
  1
CIRREFID
  2
AcAdCircleRefId
  3
DesignerServices
 90
        0
280
     0
281
     0
  0
CLASS
  1
ACADCIRCDEPID
  2
AcAdVirtualCircleDepId
  3
DesignerServices
 90
        0
280
     0
281
     0
  0
CLASS
  1
ADHDISTCNS
  2
AcAdHorizontalDistanceConstr
  3
DesignerServices
 90
        0
280
     0
281
     0
  0
CLASS
  1
ADVDISTCNS
  2
AcAdVerticalDistanceConstr
  3
DesignerServices
 90
        0
280
     0
281
     0
  0
CLASS
  1
ACMEPOINT
  2
AcImPointDisplay
  3
AcMeServices
 90
        0
280
     0
281
     1
  0
CLASS
  1
ADPLANEID
  2
AcAdSurfGeomId
  3
DesignerServices
 90
        0
280
     0
281
     0
  0
CLASS
  1
ADDATUMAXISCENTER
  2
AcAdDatumAxisCenter
  3
DesignerServices
 90
        0
280
     0
281
     0
  0
CLASS
  1
ADDATUMPOINTAXISPLANE
  2
AcAdDatumPointAxisPlane
  3
DesignerServices
 90
        0
280
     0
281
     0
  0
CLASS
  1
ADHOLEFEAT
  2
AcAdHoleFeat
  3
DesignerServices
 90
        0
280
     0
281
     0
  0
CLASS
  1
ACAD_LINE
  2
AcAdLine
  3
DesignerServices
 90
        0
280
     0
281
     1
  0
CLASS
  1
ACADLINEACAD
  2
AcAdVirtualBoundedLineAcad
  3
DesignerServices
 90
        0
280
     0
281
     0
  0
CLASS
  1
ACAD_ARC
  2
AcAdArc
  3
DesignerServices
 90
        0
280
     0
281
     1
  0
CLASS
  1
ACADARCACAD
  2
AcAdVirtualArcAcad
  3
DesignerServices
 90
        0
280
     0
281
     0
  0
CLASS
  1
ADPCURCNS
  2
AcAdPointCurveConstr
  3
DesignerServices
 90
        0
280
     0
281
     0
  0
CLASS
  1
ADHORCNS
  2
AcAdHorizontalConstr
  3
DesignerServices
 90
        0
280
     0
281
     0
  0
CLASS
  1
ADVERCNS
  2
AcAdVerticalConstr
  3
DesignerServices
 90
        0
280
     0
281
     0
  0
CLASS
  1
ADTANCNS
  2
AcAdTangentConstr
  3
DesignerServices
 90
        0
280
     0
281
     0
  0
CLASS
  1
AMDT_ALIGNED_DIM
  2
AmdtAlignedDimension
  3
AcMeServices
 90
        0
280
     0
281
     1
  0
CLASS
  1
AMDT_RADIAL_DIM
  2
AmdtRadialDimension
  3
AcMeServices
 90
        0
280
     0
281
     1
  0
CLASS
  1
ADRADCNS
  2
AcAdAcadRadiusConstr
  3
DesignerServices
 90
        0
280
     0
281
     0
  0
CLASS
  1
ADCONCCNS
  2
AcAdConcentricConstr
  3
DesignerServices
 90
        0
280
     0
281
     0
  0
CLASS
  1
ACMEROTATIONARROW
  2
AcImRotationArrowDisplay
  3
AcMeServices
 90
        0
280
     0
281
     1
  0
CLASS
  1
ACMETEXT
  2
AcImTextDisplay
  3
AcMeServices
 90
        0
280
     0
281
     1
  0
CLASS
  1
DATUMAXISDISPLAY
  2
AcAdDatumAxisDisplay
  3
DesignerServices
 90
        0
280
     0
281
     1
  0
CLASS
  1
ADFEATPOLRARRAY
  2
AcAdPolarFeatArray
  3
DesignerServices
 90
        0
280
     0
281
     0
  0
CLASS
  1
ADWORKPOINTDISPLAY
  2
AcAdWorkPointDisplay
  3
DesignerServices
 90
        0
280
     0
281
     1
  0
CLASS
  1
ADVIRTUALPOINTWORKPOINTFREE
  2
AcAdVirtualPointWorkPointFree
  3
DesignerServices
 90
        0
280
     0
281
     0
  0
CLASS
  1
ADWORKPOINTSKETCH
  2
AcAdWorkPointSketch
  3
DesignerServices
 90
        0
280
     0
281
     0
  0
CLASS
  1
DEPEDGESECONDARYDEPID
  2
AcAdDepEdgeSecondaryDepId
  3
DesignerServices
 90
        0
280
     0
281
     0
  0
CLASS
  1
AM_VIEW_SELECT_FILTER
  2
AcDmActivePartViewEntFilter
  3
DesignerServices
 90
        0
280
     0
281
     0
  0
CLASS
  1
AM_ABS_PLANE
  2
AcDmAbsPlnDef
  3
AcMechDwgViewMgmt
 90
        0
280
     0
281
     0
  0
CLASS
  1
AM_ABS_AXIS
  2
AcDmAbsAxisDef
  3
AcMechDwgViewMgmt
 90
        0
280
     0
281
     0
  0
CLASS
  1
AM_BASE_VIEW_ORIENT
  2
AcDmBaseViewOr
  3
AcMechDwgViewMgmt
 90
        0
280
     0
281
     0
  0
CLASS
  1
AM_DWG_VIEWPORT
  2
AcDmViewport
  3
AcMechDwgViewMgmt
 90
        0
280
     0
281
     0
  0
CLASS
  1
AM_VIEW_DISPLAY
  2
AcDmDwgViewDisplay
  3
AcMechDwgViewMgmt
 90
        0
280
     0
281
     0
  0
CLASS
  1
AM_CLDFLTS
  2
AcDmClDflts
  3
AcMechDwgViewMgmt
 90
        0
280
     0
281
     0
  0
CLASS
  1
AM_BASE_VIEW
  2
AcDmBaseView
  3
AcMechDwgViewMgmt
 90
        0
280
     0
281
     0
  0
CLASS
  1
ACDMVWEDCIRC
  2
AcDmViewEdgeCircle
  3
AcMechDwgViewMgmt
 90
        0
280
     0
281
     1
  0
CLASS
  1
ACDMVWEDARC
  2
AcDmViewEdgeArc
  3
AcMechDwgViewMgmt
 90
        0
280
     0
281
     1
  0
CLASS
  1
ACDMVWEDLINE
  2
AcDmViewEdgeLine
  3
AcMechDwgViewMgmt
 90
        0
280
     0
281
     1
  0
CLASS
  1
ACADSKETCHCIRCARCRES
  2
AcAdSketchCircArcRes
  3
DesignerServices
 90
        0
280
     0
281
     0
  0
CLASS
  1
AM_VIEWDIMDIAMETER
  2
AcDmViewDimDiameter
  3
AcMechDwgViewMgmt
 90
        0
280
     0
281
     0
  0
CLASS
  1
AMDTDMPARMAPDATA
  2
AmdtDmDimParMapData
  3
AcMechDwgViewMgmt
 90
        0
280
     0
281
     0
  0
CLASS
  1
ACADSKETCHPOINTRES
  2
AcAdSketchPointRes
  3
DesignerServices
 90
        0
280
     0
281
     0
  0
CLASS
  1
AM_VIEWDIMLINEAR
  2
AcDmViewDimLinear
  3
AcMechDwgViewMgmt
 90
        0
280
     0
281
     0
  0
CLASS
  1
AM_VIEWDIMRADIUS
  2
AcDmViewDimRadius
  3
AcMechDwgViewMgmt
 90
        0
280
     0
281
     0
  0
CLASS
  1
AM_ADCIRCTRLINE
  2
AcAdBullsEyeCl
  3
DesignerServices
 90
        0
280
     0
281
     0
  0
CLASS
  1
AD_CIRCTAPH
  2
AcAdTapHoleCircDisp
  3
DesignerServices
 90
        0
280
     0
281
     0
  0
CLASS
  1
AM_ORTHO_VIEW_ORIENT
  2
AcDmOrthoViewOr
  3
AcMechDwgViewMgmt
 90
        0
280
     0
281
     0
  0
CLASS
  1
AM_ORTHO_VIEW
  2
AcDmOrthoView
  3
AcMechDwgViewMgmt
 90
        0
280
     0
281
     0
  0
CLASS
  1
EDGEID
  2
AcAdEdgeId
  3
DesignerServices
 90
        0
280
     0
281
     0
  0
CLASS
  1
ACADPARTCIRCEDGRES
  2
AcAdPartCircEdgRes
  3
AdGrefServices
 90
        0
280
     0
281
     0
  0
CLASS
  1
AM_GREF_POINT
  2
AcDmGrefPntDef
  3
AcMechDwgViewMgmt
 90
        0
280
     0
281
     0
  0
CLASS
  1
AM_FULLPOINTSECTION
  2
AcDmFullPointSection
  3
AcMechDwgViewMgmt
 90
        0
280
     0
281
     0
  0
CLASS
  1
AM_SECTIONSYMBOL
  2
AcDmSectionSymbol
  3
AcMechDwgViewMgmt
 90
        0
280
     0
281
     0
  0
CLASS
  1
AM_VIEWLABEL
  2
AcDmViewLabel
  3
AcMechDwgViewMgmt
 90
        0
280
     0
281
     0
  0
CLASS
  1
AM_ADLINCTRLINE
  2
AcAdLineCl
  3
DesignerServices
 90
        0
280
     0
281
     0
  0
CLASS
  1
AD_LINETAPH
  2
AcAdTapHoleLineDisp
  3
DesignerServices
 90
        0
280
     0
281
     0
  0
CLASS
  1
FACEID
  2
AcAdFaceId
  3
DesignerServices
 90
        0
280
     0
281
     0
  0
CLASS
  1
ACADPARTPLANARFACERES
  2
AcAdPartPlanarFaceRes
  3
AdGrefServices
 90
        0
280
     0
281
     0
  0
CLASS
  1
ACDMGREFEDIT
  2
AcDmViewEntityGeomrefEdit
  3
AcMechDwgViewMgmt
 90
        0
280
     0
281
     0
  0
CLASS
  1
ACDMVIEWLINEDGERES
  2
AcDmViewLinEdgeRes
  3
AcMechDwgViewMgmt
 90
        0
280
     0
281
     0
  0
CLASS
  1
ACADPARTLINEDGRES
  2
AcAdPartLinEdgRes
  3
AdGrefServices
 90
        0
280
     0
281
     0
  0
CLASS
  1
CNRREFID
  2
AcAdCornerId
  3
DesignerServices
 90
        0
280
     0
281
     0
  0
CLASS
  1
ACADPARTPOINTRES
  2
AcAdPartPointRes
  3
AdGrefServices
 90
        0
280
     0
281
     0
  0
CLASS
  1
AM_ISO_VIEW_ORIENT
  2
AcDmIsoViewOr
  3
AcMechDwgViewMgmt
 90
        0
280
     0
281
     0
  0
CLASS
  1
AM_ISO_VIEW
  2
AcDmIsoView
  3
AcMechDwgViewMgmt
 90
        0
280
     0
281
     0
  0
CLASS
  1
AM_VIEWDIMLINEARDIAM
  2
AcDmViewDimLinearDiameter
  3
AcMechDwgViewMgmt
 90
        0
280
     0
281
     0
  0
CLASS
  1
ACADPARTCYLINDERFACERES
  2
AcAdPartCylinderFaceRes
  3
AdGrefServices
 90
        0
280
     0
281
     0
  0
CLASS
  1
ACRFINSADJ
  2
AcRfInsAdjuster
  3
AcMeServices
 90
        0
280
     0
281
     0
  0
CLASS
  1
ACAMEXPR
  2
AcAmExpr
  3
DesignerAssemblies
 90
        0
280
     0
281
     0
  0
CLASS
  1
ACCMINSERTPLPL
  2
AcCmInsertPlPl
  3
AcCmServices
 90
        0
280
     0
281
     0
  0
CLASS
  1
ACCMCONSTREACTOR
  2
AcCmConstraintReactor
  3
DesignerAssemblies
 90
        0
280
     0
281
     0
  0
CLASS
  1
ACAMGRBLOCKRECORD
  2
AcAmGrBlockRecord
  3
DesignerAssemblies
 90
        0
280
     0
281
     0
  0
CLASS
  1
ACAMVIEWREACTOR
  2
AcAmViewReactor
  3
DesignerAssemblies
 90
        0
280
     0
281
     0
  0
CLASS
  1
AMVIEW
  2
AcAmView
  3
DesignerAssemblies
 90
        0
280
     0
281
     0
  0
CLASS
  1
ACAMVIEWCONTEXT
  2
AcAmViewContext
  3
DesignerAssemblies
 90
        0
280
     0
281
     0
  0
CLASS
  1
ACAMCOMPVIEWREACTOR
  2
AcAmGrCompViewReactor
  3
DesignerAssemblies
 90
        0
280
     0
281
     0
  0
CLASS
  1
ACAMCOMPENTVIEW
  2
AcAmCompEntView
  3
DesignerAssemblies
 90
        0
280
     0
281
     1
  0
CLASS
  1
ACAMVIEWENTITYFILTER
  2
AcAmViewEntityFilter
  3
DesignerAssemblies
 90
        0
280
     0
281
     0
  0
CLASS
  1
ACRFATTGENMGR
  2
AcRfAttGeneralMgr
  3
AcAttribServices
 90
        0
280
     0
281
     0
  0
CLASS
  1
ACAD_PROXY_OBJECT_WRAPPER
  2
AcDbProxyObjectWrapper
  3
AutoCAD 2000
 90
        0
280
     0
281
     0
  0
CLASS
  1
ACAD_PROXY_ENTITY_WRAPPER
  2
AcDbProxyEntityWrapper
  3
AutoCAD 2000
 90
        0
280
     0
281
     1
  0
CLASS
  1
LONG_TRANSACTION
  2
AcDbLongTransaction
  3
AutoCAD 2000
 90
        0
280
     0
281
     0
  0
CLASS
  1
LWPOLYLINE
  2
AcDbPolyline
  3
AutoCAD 2000
 90
        0
280
     0
281
     1
  0
CLASS
  1
HATCH
  2
AcDbHatch
  3
AutoCAD 2000
 90
        0
280
     0
281
     1
  0
CLASS
  1
XRECORD
  2
AcDbXrecord
  3
AutoCAD 2000
 90
        0
280
     0
281
     0
  0
ENDSEC
  0
SECTION
  2
TABLES
  0
TABLE
  2
VPORT
  5
8
330
0
100
AcDbSymbolTable
 70
     1
  0
VPORT
  5
212E
330
8
100
AcDbSymbolTableRecord
100
AcDbViewportTableRecord
  2
*ACTIVE
 70
     0
 10
0.0
 20
0.0
 11
1.0
 21
1.0
 12
0.0
 22
0.0
 13
0.0
 23
0.0
 14
10.0
 24
10.0
 15
10.0
 25
10.0
 16
0.0
 26
0.0
 36
1.0
 17
42.68144453592606
 27
250.3942097867427
 37
123.3488035242042
 40
1230.357199209026
 41
1.295199182839632
 42
50.0
 43
0.0
 44
0.0
 50
0.0
 51
0.0
 71
     0
 72
   100
 73
     1
 74
     1
 75
     0
 76
     0
 77
     0
 78
     0
  0
ENDTAB
  0
TABLE
  2
LTYPE
  5
5
330
0
100
AcDbSymbolTable
 70
    25
  0
LTYPE
  5
14
330
5
100
AcDbSymbolTableRecord
100
AcDbLinetypeTableRecord
  2
BYBLOCK
 70
     0
  3

 72
    65
 73
     0
 40
0.0
  0
LTYPE
  5
15
330
5
100
AcDbSymbolTableRecord
100
AcDbLinetypeTableRecord
  2
BYLAYER
 70
     0
  3

 72
    65
 73
     0
 40
0.0
  0
LTYPE
  5
16
330
5
100
AcDbSymbolTableRecord
100
AcDbLinetypeTableRecord
  2
CONTINUOUS
 70
     0
  3
Solid line
 72
    65
 73
     0
 40
0.0
  0
LTYPE
  5
BD
330
5
100
AcDbSymbolTableRecord
100
AcDbLinetypeTableRecord
  2
HIDDEN
 70
     0
  3
__ __ __ __ __ __ __ __ __ __ __ __ __ __ __ __
 72
    65
 73
     2
 40
0.375
 49
0.25
 74
     0
 49
-0.125
 74
     0
  0
LTYPE
  5
BF
330
5
100
AcDbSymbolTableRecord
100
AcDbLinetypeTableRecord
  2
PHANTOM2
 70
     0
  3
___ _ _ ___ _ _ ___ _ _ ___ _ _ ___ _ _ ___ _ _
 72
    65
 73
     6
 40
1.25
 49
0.625
 74
     0
 49
-0.125
 74
     0
 49
0.125
 74
     0
 49
-0.125
 74
     0
 49
0.125
 74
     0
 49
-0.125
 74
     0
  0
LTYPE
  5
CA
330
5
100
AcDbSymbolTableRecord
100
AcDbLinetypeTableRecord
  2
CENTER
 70
     0
  3
____ _ ____ _ ____ _ ____ _ ____ _ ____ _ ____ 
 72
    65
 73
     4
 40
2.0
 49
1.25
 74
     0
 49
-0.25
 74
     0
 49
0.25
 74
     0
 49
-0.25
 74
     0
  0
LTYPE
  5
120
330
5
100
AcDbSymbolTableRecord
100
AcDbLinetypeTableRecord
  2
ASULTYPE
 70
     0
  3
Solid line
 72
    65
 73
     2
 40
3.0
 49
2.5
 74
     0
 49
0.5
 74
     0
  0
LTYPE
  5
121
330
5
100
AcDbSymbolTableRecord
100
AcDbLinetypeTableRecord
  2
ASVLTYPE
 70
     0
  3
__ __ __ __ __ __ __ __ __ __ __ __ __ __ __ __ __ __ __ __ __
 72
    65
 73
     2
 40
0.75
 49
0.5
 74
     0
 49
-0.25
 74
     0
  0
LTYPE
  5
149
330
5
100
AcDbSymbolTableRecord
100
AcDbLinetypeTableRecord
  2
ACJISTGB
 70
     0
  3
__ . . __ . .
 72
    65
 73
     6
 40
9.0
 49
4.0
 74
     0
 49
-1.0
 74
     0
 49
1.0
 74
     0
 49
-1.0
 74
     0
 49
1.0
 74
     0
 49
-1.0
 74
     0
  0
LTYPE
  5
14A
330
5
100
AcDbSymbolTableRecord
100
AcDbLinetypeTableRecord
  2
ACJISTGL
 70
     0
  3
_ _ _ _ _
 72
    65
 73
     2
 40
3.0
 49
2.0
 74
     0
 49
-1.0
 74
     0
  0
LTYPE
  5
14D
330
5
100
AcDbSymbolTableRecord
100
AcDbLinetypeTableRecord
  2
ACANSTGB
 70
     0
  3
__ . . __ . .
 72
    65
 73
     6
 40
0.35433070866
 49
0.15748031496
 74
     0
 49
-0.03937007874
 74
     0
 49
0.03937007874
 74
     0
 49
-0.03937007874
 74
     0
 49
0.03937007874
 74
     0
 49
-0.03937007874
 74
     0
  0
LTYPE
  5
14E
330
5
100
AcDbSymbolTableRecord
100
AcDbLinetypeTableRecord
  2
ACANSTGL
 70
     0
  3
_ _ _ _ _
 72
    65
 73
     2
 40
0.11811023622
 49
0.07874015748
 74
     0
 49
-0.03937007874
 74
     0
  0
LTYPE
  5
151
330
5
100
AcDbSymbolTableRecord
100
AcDbLinetypeTableRecord
  2
ACBSWELD
 70
     0
  3
_ _ _ _ _
 72
    65
 73
     2
 40
2.0
 49
2.0
 74
     0
 49
-1.0
 74
     0
  0
LTYPE
  5
152
330
5
100
AcDbSymbolTableRecord
100
AcDbLinetypeTableRecord
  2
ACBSITGB
 70
     0
  3
__ . . __ . .
 72
    65
 73
     6
 40
9.0
 49
4.0
 74
     0
 49
-1.0
 74
     0
 49
1.0
 74
     0
 49
-1.0
 74
     0
 49
1.0
 74
     0
 49
-1.0
 74
     0
  0
LTYPE
  5
153
330
5
100
AcDbSymbolTableRecord
100
AcDbLinetypeTableRecord
  2
ACBSITGL
 70
     0
  3
_ _ _ _ _
 72
    65
 73
     2
 40
3.0
 49
2.0
 74
     0
 49
-1.0
 74
     0
  0
LTYPE
  5
156
330
5
100
AcDbSymbolTableRecord
100
AcDbLinetypeTableRecord
  2
ACDINWELD
 70
     0
  3
_ _ _ _ _
 72
    65
 73
     2
 40
2.0
 49
2.0
 74
     0
 49
-1.0
 74
     0
  0
LTYPE
  5
157
330
5
100
AcDbSymbolTableRecord
100
AcDbLinetypeTableRecord
  2
ACDINTGB
 70
     0
  3
__ . . __ . .
 72
    65
 73
     6
 40
9.0
 49
4.0
 74
     0
 49
-1.0
 74
     0
 49
1.0
 74
     0
 49
-1.0
 74
     0
 49
1.0
 74
     0
 49
-1.0
 74
     0
  0
LTYPE
  5
158
330
5
100
AcDbSymbolTableRecord
100
AcDbLinetypeTableRecord
  2
ACDINTGL
 70
     0
  3
_ _ _ _ _
 72
    65
 73
     2
 40
3.0
 49
2.0
 74
     0
 49
-1.0
 74
     0
  0
LTYPE
  5
15B
330
5
100
AcDbSymbolTableRecord
100
AcDbLinetypeTableRecord
  2
ACISOWELD
 70
     0
  3
_ _ _ _ _
 72
    65
 73
     2
 40
2.0
 49
2.0
 74
     0
 49
-1.0
 74
     0
  0
LTYPE
  5
15C
330
5
100
AcDbSymbolTableRecord
100
AcDbLinetypeTableRecord
  2
ACISOTGB
 70
     0
  3
__ . . __ . .
 72
    65
 73
     6
 40
9.0
 49
4.0
 74
     0
 49
-1.0
 74
     0
 49
1.0
 74
     0
 49
-1.0
 74
     0
 49
1.0
 74
     0
 49
-1.0
 74
     0
  0
LTYPE
  5
15D
330
5
100
AcDbSymbolTableRecord
100
AcDbLinetypeTableRecord
  2
ACISOTGL
 70
     0
  3
_ _ _ _ _
 72
    65
 73
     2
 40
3.0
 49
2.0
 74
     0
 49
-1.0
 74
     0
  0
LTYPE
  5
175
330
5
100
AcDbSymbolTableRecord
100
AcDbLinetypeTableRecord
  2
AM_ISO02W050
 70
     0
  3
__ __ __ __ __ __ __ __ __ __ __ __ __ __ __
 72
    65
 73
     2
 40
7.5
 49
6.0
 74
     0
 49
-1.5
 74
     0
  0
LTYPE
  5
176
330
5
100
AcDbSymbolTableRecord
100
AcDbLinetypeTableRecord
  2
AM_ISO08W050
 70
     0
  3
____ . ____ . ____ . ____ . ____ . ____ . ____
 72
    65
 73
     4
 40
18.0
 49
12.0
 74
     0
 49
-1.5
 74
     0
 49
3.0
 74
     0
 49
-1.5
 74
     0
  0
LTYPE
  5
177
330
5
100
AcDbSymbolTableRecord
100
AcDbLinetypeTableRecord
  2
AM_ISO09W050
 70
     0
  3
_____ . . _____ . . _____ . . ____ .. ____
 72
    65
 73
     6
 40
22.5
 49
12.0
 74
     0
 49
-1.5
 74
     0
 49
3.0
 74
     0
 49
-1.5
 74
     0
 49
3.0
 74
     0
 49
-1.5
 74
     0
  0
LTYPE
  5
178
330
5
100
AcDbSymbolTableRecord
100
AcDbLinetypeTableRecord
  2
AM_ISO02W050X2
 70
     0
  3
 _ _ _ _ _ _ _ _ _ _ _ _
 72
    65
 73
     2
 40
3.75
 49
3.0
 74
     0
 49
-0.75
 74
     0
  0
LTYPE
  5
179
330
5
100
AcDbSymbolTableRecord
100
AcDbLinetypeTableRecord
  2
AM_ISO08W050X2
 70
     0
  3
__ . __ . __ . __ . __ . __
 72
    65
 73
     4
 40
9.0
 49
6.0
 74
     0
 49
-0.75
 74
     0
 49
1.5
 74
     0
 49
-0.75
 74
     0
  0
LTYPE
  5
17C
330
5
100
AcDbSymbolTableRecord
100
AcDbLinetypeTableRecord
  2
AMZIGZAG
 70
     0
  3
/\/-/\/-/\/-/\/-/\/-/\/
 72
    65
 73
     2
 40
11.00009999999999
 49
0.0001
 74
     4
 75
   135
340
17B
 46
0.04
 50
0.0
 44
0.0
 45
0.0
 49
-11.0
 74
     0
  0
ENDTAB
  0
TABLE
  2
LAYER
  5
2
330
0
100
AcDbSymbolTable
 70
    18
  0
LAYER
  5
F
330
2
100
AcDbSymbolTableRecord
100
AcDbLayerTableRecord
  2
0
 70
     0
 62
     7
  6
CONTINUOUS
  0
LAYER
  5
309
330
2
100
AcDbSymbolTableRecord
100
AcDbLayerTableRecord
  2
DEFPOINTS
 70
     0
 62
     7
  6
CONTINUOUS
  0
LAYER
  5
31F
330
2
100
AcDbSymbolTableRecord
100
AcDbLayerTableRecord
  2
AM_5
 70
     0
 62
     3
  6
CONTINUOUS
  0
LAYER
  5
853
330
2
100
AcDbSymbolTableRecord
100
AcDbLayerTableRecord
  2
AM_WORK
 70
     0
 62
     2
  6
CONTINUOUS
  0
LAYER
  5
A28
330
2
100
AcDbSymbolTableRecord
100
AcDbLayerTableRecord
  2
AM_VIEWS
 70
     0
 62
     1
  6
CONTINUOUS
  0
LAYER
  5
A2C
330
2
100
AcDbSymbolTableRecord
100
AcDbLayerTableRecord
  2
AM_VIS
 70
     2
 62
     2
  6
CONTINUOUS
  0
LAYER
  5
A2D
330
2
100
AcDbSymbolTableRecord
100
AcDbLayerTableRecord
  2
AM_HID
 70
     2
 62
     7
  6
AM_ISO02W050
  0
LAYER
  5
AA3
330
2
100
AcDbSymbolTableRecord
100
AcDbLayerTableRecord
  2
AM_PARDIM
 70
     0
 62
     3
  6
CONTINUOUS
  0
LAYER
  5
D85
330
2
100
AcDbSymbolTableRecord
100
AcDbLayerTableRecord
  2
AM_7
 70
     0
 62
     4
  6
AM_ISO08W050
  0
LAYER
  5
1078
330
2
100
AcDbSymbolTableRecord
100
AcDbLayerTableRecord
  2
AM_10
 70
     0
 62
     7
  6
AM_ISO08W050
  0
LAYER
  5
1079
330
2
100
AcDbSymbolTableRecord
100
AcDbLayerTableRecord
  2
AM_6
 70
     0
 62
     2
  6
CONTINUOUS
  0
LAYER
  5
1089
330
2
100
AcDbSymbolTableRecord
100
AcDbLayerTableRecord
  2
AM_8
 70
     0
 62
     1
  6
CONTINUOUS
  0
LAYER
  5
108A
330
2
100
AcDbSymbolTableRecord
100
AcDbLayerTableRecord
  2
AMV_2_HATCH
 70
     2
 62
     1
  6
CONTINUOUS
  0
LAYER
  5
1209
330
2
100
AcDbSymbolTableRecord
100
AcDbLayerTableRecord
  2
AM_REFDIM
 70
     0
 62
     4
  6
CONTINUOUS
  0
LAYER
  5
181C
330
2
100
AcDbSymbolTableRecord
100
AcDbLayerTableRecord
  2
AM_FR
 70
     4
 62
     7
  6
CONTINUOUS
  0
LAYER
  5
1DBA
330
2
100
AcDbSymbolTableRecord
100
AcDbLayerTableRecord
  2
10
 70
     0
 62
     5
  6
CONTINUOUS
  0
LAYER
  5
1DFA
330
2
100
AcDbSymbolTableRecord
100
AcDbLayerTableRecord
  2
11
 70
     0
 62
     4
  6
CONTINUOUS
  0
LAYER
  5
1F0E
330
2
100
AcDbSymbolTableRecord
100
AcDbLayerTableRecord
  2
9
 70
     0
 62
     7
  6
CONTINUOUS
  0
ENDTAB
  0
TABLE
  2
STYLE
  5
3
330
0
100
AcDbSymbolTable
 70
    13
  0
STYLE
  5
10
330
3
100
AcDbSymbolTableRecord
100
AcDbTextStyleTableRecord
  2
STANDARD
 70
     0
 40
12.0
 41
1.0
 50
0.0
 71
     0
 42
3.5
  3
ISOCP.shx
  4

  0
STYLE
  5
147
330
3
100
AcDbSymbolTableRecord
100
AcDbTextStyleTableRecord
  2
ACJISTS
 70
     0
 40
1.0
 41
1.0
 50
0.0
 71
     0
 42
3.5
  3
isocp.shx
  4
bigfont.shx
  0
STYLE
  5
148
330
3
100
AcDbSymbolTableRecord
100
AcDbTextStyleTableRecord
  2
ACJISGDT
 70
     0
 40
0.0
 41
1.0
 50
0.0
 71
     0
 42
3.5
  3
amgdt.shx
  4

  0
STYLE
  5
14B
330
3
100
AcDbSymbolTableRecord
100
AcDbTextStyleTableRecord
  2
ACANSTSI
 70
     0
 40
1.0
 41
1.0
 50
0.0
 71
     0
 42
3.5
  3
romans.shx
  4

  0
STYLE
  5
14C
330
3
100
AcDbSymbolTableRecord
100
AcDbTextStyleTableRecord
  2
ACANSGDT
 70
     0
 40
0.0
 41
1.0
 50
0.0
 71
     0
 42
3.5
  3
amgdt.shx
  4

  0
STYLE
  5
14F
330
3
100
AcDbSymbolTableRecord
100
AcDbTextStyleTableRecord
  2
ACBSITS
 70
     0
 40
1.0
 41
1.0
 50
0.0
 71
     0
 42
3.5
  3
isocp.shx
  4

  0
STYLE
  5
150
330
3
100
AcDbSymbolTableRecord
100
AcDbTextStyleTableRecord
  2
ACBSIGDT
 70
     0
 40
0.0
 41
1.0
 50
0.0
 71
     0
 42
3.5
  3
amgdt.shx
  4

  0
STYLE
  5
154
330
3
100
AcDbSymbolTableRecord
100
AcDbTextStyleTableRecord
  2
ACDINTS
 70
     0
 40
1.0
 41
1.0
 50
0.0
 71
     0
 42
3.5
  3
isocp.shx
  4

  0
STYLE
  5
155
330
3
100
AcDbSymbolTableRecord
100
AcDbTextStyleTableRecord
  2
ACDINGDT
 70
     0
 40
0.0
 41
1.0
 50
0.0
 71
     0
 42
3.5
  3
amgdt.shx
  4

  0
STYLE
  5
159
330
3
100
AcDbSymbolTableRecord
100
AcDbTextStyleTableRecord
  2
ACISOTS
 70
     0
 40
1.0
 41
1.0
 50
0.0
 71
     0
 42
3.5
  3
isocp.shx
  4

  0
STYLE
  5
15A
330
3
100
AcDbSymbolTableRecord
100
AcDbTextStyleTableRecord
  2
ACISOGDT
 70
     0
 40
0.0
 41
1.0
 50
0.0
 71
     0
 42
3.5
  3
amgdt.shx
  4

  0
STYLE
  5
17B
330
3
100
AcDbSymbolTableRecord
100
AcDbTextStyleTableRecord
  2

 70
     1
 40
0.0
 41
1.0
 50
0.0
 71
     0
 42
3.5
  3
ltypeshp.shx
  4

  0
STYLE
  5
1F0F
330
3
100
AcDbSymbolTableRecord
100
AcDbTextStyleTableRecord
  2
TXT
 70
     0
 40
1.0
 41
0.7
 50
0.0
 71
     0
 42
1.0
  3
txt
  4

  0
ENDTAB
  0
TABLE
  2
VIEW
  5
6
330
0
100
AcDbSymbolTable
 70
     3
  0
VIEW
  5
1C8
330
6
100
AcDbSymbolTableRecord
100
AcDbViewTableRecord
  2
AMDTVIEW1
 70
     0
 40
329.0721649484535
 10
210.0
 20
164.5360824742267
 41
420.0
 11
0.0
 21
0.0
 31
1.0
 12
0.0
 22
0.0
 32
0.0
 42
50.0
 43
0.0
 44
0.0
 50
0.0
 71
     0
  0
VIEW
  5
1C9
330
6
100
AcDbSymbolTableRecord
100
AcDbViewTableRecord
  2
AMDTVIEW2
 70
     0
 40
329.0721649484535
 10
210.0
 20
164.5360824742267
 41
420.0
 11
0.0
 21
0.0
 31
1.0
 12
0.0
 22
0.0
 32
0.0
 42
50.0
 43
0.0
 44
0.0
 50
0.0
 71
     0
  0
VIEW
  5
1CA
330
6
100
AcDbSymbolTableRecord
100
AcDbViewTableRecord
  2
AMDTVIEW3
 70
     0
 40
329.0721649484535
 10
210.0
 20
164.5360824742267
 41
420.0
 11
0.0
 21
0.0
 31
1.0
 12
0.0
 22
0.0
 32
0.0
 42
50.0
 43
0.0
 44
0.0
 50
0.0
 71
     0
  0
ENDTAB
  0
TABLE
  2
UCS
  5
7
330
0
100
AcDbSymbolTable
 70
     0
  0
ENDTAB
  0
TABLE
  2
APPID
  5
9
330
0
100
AcDbSymbolTable
 70
    13
  0
APPID
  5
11
330
9
100
AcDbSymbolTableRecord
100
AcDbRegAppTableRecord
  2
ACAD
 70
     0
  0
APPID
  5
CD
330
9
100
AcDbSymbolTableRecord
100
AcDbRegAppTableRecord
  2
AD_DRAW
 70
     0
  0
APPID
  5
E7
330
9
100
AcDbSymbolTableRecord
100
AcDbRegAppTableRecord
  2
DESIGNERASSEMBLIES
 70
     0
  0
APPID
  5
EB
330
9
100
AcDbSymbolTableRecord
100
AcDbRegAppTableRecord
  2
MCAD_NO_VIS
 70
     0
  0
APPID
  5
122
330
9
100
AcDbSymbolTableRecord
100
AcDbRegAppTableRecord
  2
ASURF_PCURVE_APPNAME
 70
     0
  0
APPID
  5
17F
330
9
100
AcDbSymbolTableRecord
100
AcDbRegAppTableRecord
  2
ACAD_TEMP_GRAPHIC
 70
     0
  0
APPID
  5
189
330
9
100
AcDbSymbolTableRecord
100
AcDbRegAppTableRecord
  2
ACATTRIBSERVICES
 70
     0
  0
APPID
  5
1C4
330
9
100
AcDbSymbolTableRecord
100
AcDbRegAppTableRecord
  2
ACADM_DIM_EDIT
 70
     0
  0
APPID
  5
1D5
330
9
100
AcDbSymbolTableRecord
100
AcDbRegAppTableRecord
  2
GENIUS_GENDIM_13
 70
     0
  0
APPID
  5
1D6
330
9
100
AcDbSymbolTableRecord
100
AcDbRegAppTableRecord
  2
GENIUS_GENDTOL_13
 70
     0
  0
APPID
  5
1D7
330
9
100
AcDbSymbolTableRecord
100
AcDbRegAppTableRecord
  2
GENIUS_GE3DTOL_13
 70
     0
  0
APPID
  5
320
330
9
100
AcDbSymbolTableRecord
100
AcDbRegAppTableRecord
  2
AD_SKETCHDIM
 70
     0
  0
APPID
  5
FA0
330
9
100
AcDbSymbolTableRecord
100
AcDbRegAppTableRecord
  2
GENIUS_GENDIMSH_14
 70
     0
  0
ENDTAB
  0
TABLE
  2
DIMSTYLE
  5
A
330
0
100
AcDbSymbolTable
 70
     9
  0
DIMSTYLE
105
1D
330
A
100
AcDbSymbolTableRecord
100
AcDbDimStyleTableRecord
  2
STANDARD
 70
     0
  3

  4

  5

  6

  7

 40
1.0
 41
2.5
 42
0.625
 43
3.75
 44
1.25
 45
0.0
 46
0.0
 47
0.0
 48
0.0
140
2.5
141
2.5
142
0.0
143
0.0394
144
1.0
145
0.0
146
1.0
147
0.625
 71
     0
 72
     0
 73
     0
 74
     0
 75
     0
 76
     0
 77
     1
 78
     8
170
     0
171
     4
172
     1
173
     0
174
     0
175
     0
176
     0
177
     0
178
     0
270
     8
271
     4
272
     4
273
     8
274
     4
340
10
275
     0
280
     0
281
     0
282
     0
283
     1
284
     0
285
     0
286
     0
287
     3
288
     0
  0
DIMSTYLE
105
25
102
{ACAD_REACTORS
330
1E69
330
1E78
330
1EA8
330
1ED1
330
1EDD
330
1EE9
330
1EF5
330
1EFE
330
1F75
102
}
330
A
100
AcDbSymbolTableRecord
100
AcDbDimStyleTableRecord
  2
ISO-35
 70
     0
  3

  4

  5

  6

  7

 40
1.0
 41
3.5
 42
0.875
 43
5.25
 44
1.75
 45
0.0
 46
0.0
 47
0.0
 48
0.0
140
3.5
141
3.5
142
0.0
143
0.0394
144
1.0
145
0.0
146
1.0
147
0.875
 71
     0
 72
     0
 73
     0
 74
     0
 75
     0
 76
     0
 77
     1
 78
     8
170
     0
171
     4
172
     1
173
     0
174
     0
175
     0
176
     0
177
     0
178
     0
270
     8
271
     4
272
     4
273
     8
274
     4
340
10
275
     0
280
     0
281
     0
282
     0
283
     1
284
     0
285
     0
286
     0
287
     3
288
     0
  0
DIMSTYLE
105
26
330
A
100
AcDbSymbolTableRecord
100
AcDbDimStyleTableRecord
  2
ISO-5
 70
     0
  3

  4

  5

  6

  7

 40
1.0
 41
5.0
 42
1.25
 43
7.5
 44
2.5
 45
0.0
 46
0.0
 47
0.0
 48
0.0
140
5.0
141
5.0
142
0.0
143
0.0394
144
1.0
145
0.0
146
1.0
147
1.25
 71
     0
 72
     0
 73
     0
 74
     0
 75
     0
 76
     0
 77
     1
 78
     8
170
     0
171
     4
172
     1
173
     0
174
     0
175
     0
176
     0
177
     0
178
     0
270
     8
271
     4
272
     4
273
     8
274
     4
340
10
275
     0
280
     0
281
     0
282
     0
283
     1
284
     0
285
     0
286
     0
287
     3
288
     0
  0
DIMSTYLE
105
27
330
A
100
AcDbSymbolTableRecord
100
AcDbDimStyleTableRecord
  2
ISO-7
 70
     0
  3

  4

  5

  6

  7

 40
1.0
 41
7.0
 42
1.75
 43
10.5
 44
3.5
 45
0.0
 46
0.0
 47
0.0
 48
0.0
140
7.0
141
7.0
142
0.0
143
0.0394
144
1.0
145
0.0
146
1.0
147
1.75
 71
     0
 72
     0
 73
     0
 74
     0
 75
     0
 76
     0
 77
     1
 78
     8
170
     0
171
     4
172
     1
173
     0
174
     0
175
     0
176
     0
177
     0
178
     0
270
     8
271
     4
272
     4
273
     8
274
     4
340
10
275
     0
280
     0
281
     0
282
     0
283
     1
284
     0
285
     0
286
     0
287
     3
288
     0
  0
DIMSTYLE
105
28
330
A
100
AcDbSymbolTableRecord
100
AcDbDimStyleTableRecord
  2
ISO1
 70
     0
  3

  4

  5

  6

  7

 40
1.0
 41
10.0
 42
2.5
 43
15.0
 44
5.0
 45
0.0
 46
0.0
 47
0.0
 48
0.0
140
10.0
141
10.0
142
0.0
143
0.0394
144
1.0
145
0.0
146
1.0
147
2.5
 71
     0
 72
     0
 73
     0
 74
     0
 75
     0
 76
     0
 77
     1
 78
     8
170
     0
171
     4
172
     1
173
     0
174
     0
175
     0
176
     0
177
     0
178
     0
270
     8
271
     4
272
     4
273
     8
274
     4
340
10
275
     0
280
     0
281
     0
282
     0
283
     1
284
     0
285
     0
286
     0
287
     3
288
     0
  0
DIMSTYLE
105
29
330
A
100
AcDbSymbolTableRecord
100
AcDbDimStyleTableRecord
  2
ISO1-4
 70
     0
  3

  4

  5

  6

  7

 40
1.0
 41
14.0
 42
3.5
 43
21.0
 44
7.0
 45
0.0
 46
0.0
 47
0.0
 48
0.0
140
14.0
141
14.0
142
0.0
143
0.0394
144
1.0
145
5.599999999999999
146
1.0
147
3.5
 71
     0
 72
     0
 73
     1
 74
     0
 75
     0
 76
     0
 77
     1
 78
     8
170
     0
171
     2
172
     1
173
     0
174
     0
175
     0
176
     0
177
     0
178
     0
270
     8
271
     4
272
     4
273
     8
274
     2
340
10
275
     0
280
     0
281
     0
282
     0
283
     1
284
     0
285
     0
286
     0
287
     3
288
     0
  0
DIMSTYLE
105
2A
330
A
100
AcDbSymbolTableRecord
100
AcDbDimStyleTableRecord
  2
ISO2
 70
     0
  3

  4

  5

  6

  7

 40
1.0
 41
20.0
 42
5.0
 43
30.0
 44
10.0
 45
0.0
 46
0.0
 47
0.0
 48
0.0
140
20.0
141
20.0
142
0.0
143
0.0394
144
1.0
145
0.0
146
1.0
147
5.0
 71
     0
 72
     0
 73
     0
 74
     0
 75
     0
 76
     0
 77
     1
 78
     8
170
     0
171
     4
172
     1
173
     0
174
     0
175
     0
176
     0
177
     0
178
     0
270
     8
271
     4
272
     4
273
     8
274
     4
340
10
275
     0
280
     0
281
     0
282
     0
283
     1
284
     0
285
     0
286
     0
287
     3
288
     0
  0
DIMSTYLE
105
60
330
A
100
AcDbSymbolTableRecord
100
AcDbDimStyleTableRecord
  2
ISO-4
 70
     0
  3

  4

  5

  6

  7

 40
1.0
 41
14.0
 42
3.5
 43
21.0
 44
7.0
 45
0.0
 46
0.0
 47
0.0
 48
0.0
140
14.0
141
14.0
142
0.0
143
0.0394
144
1.0
145
0.0
146
1.0
147
3.5
 71
     0
 72
     0
 73
     0
 74
     0
 75
     0
 76
     0
 77
     1
 78
     8
170
     0
171
     4
172
     1
173
     0
174
     0
175
     0
176
     0
177
     0
178
     0
270
     8
271
     4
272
     4
273
     8
274
     4
340
10
275
     0
280
     0
281
     0
282
     0
283
     1
284
     0
285
     0
286
     0
287
     3
288
     0
  0
DIMSTYLE
105
62
330
A
100
AcDbSymbolTableRecord
100
AcDbDimStyleTableRecord
  2
ISO-25
 70
     0
  3

  4

  5

  6

  7

 40
1.0
 41
2.5
 42
0.625
 43
3.75
 44
1.25
 45
0.0
 46
0.0
 47
0.0
 48
0.0
140
2.5
141
2.5
142
0.0
143
0.0394
144
1.0
145
0.0
146
1.0
147
0.625
 71
     0
 72
     0
 73
     0
 74
     0
 75
     0
 76
     0
 77
     1
 78
     8
170
     0
171
     4
172
     1
173
     0
174
     0
175
     0
176
     0
177
     0
178
     0
270
     8
271
     4
272
     4
273
     8
274
     4
340
10
275
     0
280
     0
281
     0
282
     0
283
     1
284
     0
285
     0
286
     0
287
     3
288
     0
  0
ENDTAB
  0
TABLE
  2
BLOCK_RECORD
  5
1
330
0
100
AcDbSymbolTable
 70
    22
  0
BLOCK_RECORD
  5
1A
102
{ACAD_XDICTIONARY
360
12A
102
}
330
1
100
AcDbSymbolTableRecord
100
AcDbBlockTableRecord
  2
*MODEL_SPACE
  0
BLOCK_RECORD
  5
17
102
{ACAD_XDICTIONARY
360
21C4
102
}
330
1
100
AcDbSymbolTableRecord
100
AcDbBlockTableRecord
  2
*PAPER_SPACE
  0
BLOCK_RECORD
  5
DE
330
1
100
AcDbSymbolTableRecord
100
AcDbBlockTableRecord
  2
*U0
  0
BLOCK_RECORD
  5
180C
330
1
100
AcDbSymbolTableRecord
100
AcDbBlockTableRecord
  2
*U1
  0
BLOCK_RECORD
  5
1810
330
1
100
AcDbSymbolTableRecord
100
AcDbBlockTableRecord
  2
*U2
  0
BLOCK_RECORD
  5
1E6A
330
1
100
AcDbSymbolTableRecord
100
AcDbBlockTableRecord
  2
*D3
  0
BLOCK_RECORD
  5
1E79
330
1
100
AcDbSymbolTableRecord
100
AcDbBlockTableRecord
  2
*D4
  0
BLOCK_RECORD
  5
1EA9
330
1
100
AcDbSymbolTableRecord
100
AcDbBlockTableRecord
  2
*D5
  0
BLOCK_RECORD
  5
1ED2
330
1
100
AcDbSymbolTableRecord
100
AcDbBlockTableRecord
  2
*D6
  0
BLOCK_RECORD
  5
1EDE
330
1
100
AcDbSymbolTableRecord
100
AcDbBlockTableRecord
  2
*D7
  0
BLOCK_RECORD
  5
1EEA
330
1
100
AcDbSymbolTableRecord
100
AcDbBlockTableRecord
  2
*D8
  0
BLOCK_RECORD
  5
1EF6
330
1
100
AcDbSymbolTableRecord
100
AcDbBlockTableRecord
  2
*D9
  0
BLOCK_RECORD
  5
1EFF
330
1
100
AcDbSymbolTableRecord
100
AcDbBlockTableRecord
  2
*D10
  0
BLOCK_RECORD
  5
1F10
330
1
100
AcDbSymbolTableRecord
100
AcDbBlockTableRecord
  2
BARROW-R
  0
BLOCK_RECORD
  5
1F1E
330
1
100
AcDbSymbolTableRecord
100
AcDbBlockTableRecord
  2
BARROW-L
  0
BLOCK_RECORD
  5
1F27
330
1
100
AcDbSymbolTableRecord
100
AcDbBlockTableRecord
  2
SECT-B-B
  0
BLOCK_RECORD
  5
1F2E
330
1
100
AcDbSymbolTableRecord
100
AcDbBlockTableRecord
  2
*X14
  0
BLOCK_RECORD
  5
1F45
330
1
100
AcDbSymbolTableRecord
100
AcDbBlockTableRecord
  2
*X15
  0
BLOCK_RECORD
  5
1F5A
330
1
100
AcDbSymbolTableRecord
100
AcDbBlockTableRecord
  2
FOCUS
  0
BLOCK_RECORD
  5
1F76
330
1
100
AcDbSymbolTableRecord
100
AcDbBlockTableRecord
  2
*D17
  0
ENDTAB
  0
ENDSEC
  0
SECTION
  2
BLOCKS
  0
BLOCK
  5
1B
330
1A
100
AcDbEntity
  8
0
100
AcDbBlockBegin
  2
*MODEL_SPACE
 70
     0
 10
0.0
 20
0.0
 30
0.0
  3
*MODEL_SPACE
  1

  0
ENDBLK
  5
1C
330
1A
100
AcDbEntity
  8
0
100
AcDbBlockEnd
  0
BLOCK
  5
18
330
17
100
AcDbEntity
 67
     1
  8
0
100
AcDbBlockBegin
  2
*PAPER_SPACE
 70
     0
 10
0.0
 20
0.0
 30
0.0
  3
*PAPER_SPACE
  1

  0
ENDBLK
  5
19
330
17
100
AcDbEntity
 67
     1
  8
0
100
AcDbBlockEnd
  0
BLOCK
  5
DF
330
DE
100
AcDbEntity
  8
0
100
AcDbBlockBegin
  2
*U0
 70
     1
 10
0.0
 20
0.0
 30
0.0
  3
*U0
  1

  0
ENDBLK
  5
E0
330
DE
100
AcDbEntity
  8
0
100
AcDbBlockEnd
  0
BLOCK
  5
180D
330
180C
100
AcDbEntity
  8
0
100
AcDbBlockBegin
  2
*U1
 70
     1
 10
0.0
 20
0.0
 30
0.0
  3
*U1
  1

  0
ACAD_PROXY_ENTITY
  5
1818
330
180C
100
AcDbEntity
  8
AM_6
100
AcDbProxyEntity
 90
      498
 91
      726
 92
        8
310
0800000000000000
 93
       33
310
ABA9005500
340
1810
330
0
 94
        0
1001
ACAD
1000
AcadProxyRoundTripData
1071
      615
1071
   393239
1070
     0
  0
ENDBLK
  5
180E
330
180C
100
AcDbEntity
  8
0
100
AcDbBlockEnd
  0
BLOCK
  5
1811
330
1810
100
AcDbEntity
  8
0
100
AcDbBlockBegin
  2
*U2
 70
     1
 10
0.0
 20
0.0
 30
0.0
  3
*U2
  1

  0
ENDBLK
  5
1812
330
1810
100
AcDbEntity
  8
0
100
AcDbBlockEnd
  0
BLOCK
  5
1E76
330
1E6A
100
AcDbEntity
  8
0
100
AcDbBlockBegin
  2
*D3
 70
     1
 10
0.0
 20
0.0
 30
0.0
  3
*D3
  1

  0
LINE
  5
1E6B
330
1E6A
100
AcDbEntity
  8
11
100
AcDbLine
 10
761.5662313854259
 20
405.5203698565643
 30
0.0
 11
761.5662313854259
 21
482.6520441659008
 31
0.0
  0
LINE
  5
1E6C
330
1E6A
100
AcDbEntity
  8
11
100
AcDbLine
 10
782.5662313854236
 20
405.5203698565643
 30
0.0
 11
782.5662313854236
 21
482.6520441659008
 31
0.0
  0
LINE
  5
1E6D
330
1E6A
100
AcDbEntity
  8
11
100
AcDbLine
 10
749.5662313854259
 20
480.9020441659008
 30
0.0
 11
737.5662313854259
 21
480.9020441659008
 31
0.0
  0
LINE
  5
1E6E
330
1E6A
100
AcDbEntity
  8
11
100
AcDbLine
 10
794.5662313854236
 20
480.9020441659008
 30
0.0
 11
806.5662313854236
 21
480.9020441659008
 31
0.0
  0
LINE
  5
1E6F
330
1E6A
100
AcDbEntity
  8
11
100
AcDbLine
 10
761.5662313854259
 20
480.9020441659008
 30
0.0
 11
782.5662313854236
 21
480.9020441659008
 31
0.0
  0
SOLID
  5
1E70
330
1E6A
100
AcDbEntity
  8
11
100
AcDbTrace
 10
749.5662313854259
 20
482.9020441659008
 30
0.0
 11
749.5662313854259
 21
478.9020441659008
 31
0.0
 12
761.5662313854259
 22
480.9020441659008
 32
0.0
 13
761.5662313854259
 23
480.9020441659008
 33
0.0
  0
SOLID
  5
1E71
330
1E6A
100
AcDbEntity
  8
11
100
AcDbTrace
 10
794.5662313854236
 20
482.9020441659008
 30
0.0
 11
794.5662313854236
 21
478.9020441659008
 31
0.0
 12
782.5662313854236
 22
480.9020441659008
 32
0.0
 13
782.5662313854236
 23
480.9020441659008
 33
0.0
  0
MTEXT
  5
1E72
330
1E6A
100
AcDbEntity
  8
11
 62
     6
100
AcDbMText
 10
772.0662313854248
 20
487.778225268263
 30
0.0
 40
12.0
 41
0.0
 71
     5
 72
     1
  1
\A1;21
1001
ACAD
1000
MTEXTBEGIN
1070
    73
1070
     1
1070
    44
1040
1.0
1070
    74
1070
     0
1000
MTEXTEND
  0
POINT
  5
1E73
330
1E6A
100
AcDbEntity
  8
DEFPOINTS
 62
     0
100
AcDbPoint
 10
761.5662313854259
 20
404.6453698565643
 30
0.0
  0
POINT
  5
1E74
330
1E6A
100
AcDbEntity
  8
DEFPOINTS
 62
     0
100
AcDbPoint
 10
782.5662313854236
 20
404.6453698565643
 30
0.0
  0
POINT
  5
1E75
330
1E6A
100
AcDbEntity
  8
DEFPOINTS
 62
     0
100
AcDbPoint
 10
782.5662313854236
 20
480.9020441659008
 30
0.0
  0
ENDBLK
  5
1E77
330
1E6A
100
AcDbEntity
  8
0
100
AcDbBlockEnd
  0
BLOCK
  5
1E85
330
1E79
100
AcDbEntity
  8
0
100
AcDbBlockBegin
  2
*D4
 70
     1
 10
0.0
 20
0.0
 30
0.0
  3
*D4
  1

  0
LINE
  5
1E7A
330
1E79
100
AcDbEntity
  8
11
100
AcDbLine
 10
777.566231385424
 20
278.0203698565643
 30
0.0
 11
777.566231385424
 21
328.046447602574
 31
0.0
  0
LINE
  5
1E7B
330
1E79
100
AcDbEntity
  8
11
100
AcDbLine
 10
782.566231385424
 20
278.0203698565643
 30
0.0
 11
782.566231385424
 21
328.046447602574
 31
0.0
  0
LINE
  5
1E7C
330
1E79
100
AcDbEntity
  8
11
100
AcDbLine
 10
765.566231385424
 20
326.296447602574
 30
0.0
 11
753.566231385424
 21
326.296447602574
 31
0.0
  0
LINE
  5
1E7D
330
1E79
100
AcDbEntity
  8
11
100
AcDbLine
 10
794.566231385424
 20
326.296447602574
 30
0.0
 11
813.6132876602717
 21
326.296447602574
 31
0.0
  0
LINE
  5
1E7E
330
1E79
100
AcDbEntity
  8
11
100
AcDbLine
 10
777.566231385424
 20
326.296447602574
 30
0.0
 11
782.566231385424
 21
326.296447602574
 31
0.0
  0
SOLID
  5
1E7F
330
1E79
100
AcDbEntity
  8
11
100
AcDbTrace
 10
765.566231385424
 20
328.296447602574
 30
0.0
 11
765.566231385424
 21
324.296447602574
 31
0.0
 12
777.566231385424
 22
326.296447602574
 32
0.0
 13
777.566231385424
 23
326.296447602574
 33
0.0
  0
SOLID
  5
1E80
330
1E79
100
AcDbEntity
  8
11
100
AcDbTrace
 10
794.566231385424
 20
328.296447602574
 30
0.0
 11
794.566231385424
 21
324.296447602574
 31
0.0
 12
782.566231385424
 22
326.296447602574
 32
0.0
 13
782.566231385424
 23
326.296447602574
 33
0.0
  0
MTEXT
  5
1E81
330
1E79
100
AcDbEntity
  8
11
 62
     6
100
AcDbMText
 10
810.0897595228479
 20
333.171447602574
 30
0.0
 40
12.0
 41
0.0
 71
     5
 72
     1
  1
\A1;5
1001
ACAD
1000
MTEXTBEGIN
1070
    73
1070
     1
1070
    44
1040
1.0
1070
    74
1070
     0
1000
MTEXTEND
  0
POINT
  5
1E82
330
1E79
100
AcDbEntity
  8
DEFPOINTS
 62
     0
100
AcDbPoint
 10
777.566231385424
 20
277.1453698565643
 30
0.0
  0
POINT
  5
1E83
330
1E79
100
AcDbEntity
  8
DEFPOINTS
 62
     0
100
AcDbPoint
 10
782.566231385424
 20
277.1453698565643
 30
0.0
  0
POINT
  5
1E84
330
1E79
100
AcDbEntity
  8
DEFPOINTS
 62
     0
100
AcDbPoint
 10
782.566231385424
 20
326.296447602574
 30
0.0
  0
ENDBLK
  5
1E86
330
1E79
100
AcDbEntity
  8
0
100
AcDbBlockEnd
  0
BLOCK
  5
1EB3
330
1EA9
100
AcDbEntity
  8
0
100
AcDbBlockBegin
  2
*D5
 70
     1
 10
0.0
 20
0.0
 30
0.0
  3
*D5
  1

  0
LINE
  5
1EBD
330
1EA9
100
AcDbEntity
  8
11
100
AcDbLine
 10
761.5662313854259
 20
5.5203698565644
 30
0.0
 11
761.5662313854259
 21
46.96649507586426
 31
0.0
  0
LINE
  5
1EBE
330
1EA9
100
AcDbEntity
  8
11
100
AcDbLine
 10
787.566231385425
 20
5.520369856565707
 30
0.0
 11
787.566231385425
 21
46.96649507586426
 31
0.0
  0
LINE
  5
1EBF
330
1EA9
100
AcDbEntity
  8
11
100
AcDbLine
 10
773.5662313854259
 20
45.21649507586426
 30
0.0
 11
775.566231385425
 21
45.21649507586426
 31
0.0
  0
LINE
  5
1EC0
330
1EA9
100
AcDbEntity
  8
11
100
AcDbLine
 10
787.566231385425
 20
45.21649507586426
 30
0.0
 11
829.816231385425
 21
45.21649507586426
 31
0.0
  0
SOLID
  5
1EC1
330
1EA9
100
AcDbEntity
  8
11
100
AcDbTrace
 10
773.5662313854259
 20
47.21649507586426
 30
0.0
 11
773.5662313854259
 21
43.21649507586426
 31
0.0
 12
761.5662313854259
 22
45.21649507586426
 32
0.0
 13
761.5662313854259
 23
45.21649507586426
 33
0.0
  0
SOLID
  5
1EC2
330
1EA9
100
AcDbEntity
  8
11
100
AcDbTrace
 10
775.566231385425
 20
47.21649507586426
 30
0.0
 11
775.566231385425
 21
43.21649507586426
 31
0.0
 12
787.566231385425
 22
45.21649507586426
 32
0.0
 13
787.566231385425
 23
45.21649507586426
 33
0.0
  0
MTEXT
  5
1EC3
330
1EA9
100
AcDbEntity
  8
11
 62
     6
100
AcDbMText
 10
814.6912313854249
 20
52.09267617822646
 30
0.0
 40
12.0
 41
0.0
 71
     5
 72
     1
  1
\A1;   26
1001
ACAD
1000
MTEXTBEGIN
1070
    73
1070
     1
1070
    44
1040
1.0
1070
    74
1070
     0
1000
MTEXTEND
  0
POINT
  5
1EC4
330
1EA9
100
AcDbEntity
  8
DEFPOINTS
 62
     0
100
AcDbPoint
 10
761.5662313854259
 20
4.6453698565644
 30
0.0
  0
POINT
  5
1EC5
330
1EA9
100
AcDbEntity
  8
DEFPOINTS
 62
     0
100
AcDbPoint
 10
787.566231385425
 20
4.645369856565707
 30
0.0
  0
POINT
  5
1EC6
330
1EA9
100
AcDbEntity
  8
DEFPOINTS
 62
     0
100
AcDbPoint
 10
787.566231385425
 20
45.21649507586426
 30
0.0
  0
ENDBLK
  5
1EB4
330
1EA9
100
AcDbEntity
  8
0
100
AcDbBlockEnd
  0
BLOCK
  5
1EDB
330
1ED2
100
AcDbEntity
  8
0
100
AcDbBlockBegin
  2
*D6
 70
     1
 10
0.0
 20
0.0
 30
0.0
  3
*D6
  1

  0
LINE
  5
1ED3
330
1ED2
100
AcDbEntity
  8
11
100
AcDbLine
 10
-165.0238985033753
 20
-66.24254306947782
 30
0.0
 11
-111.7447222777013
 21
-43.96357511746536
 31
0.0
  0
LINE
  5
1ED4
330
1ED2
100
AcDbEntity
  8
11
100
AcDbLine
 10
120.7476042065226
 20
53.25431483059405
 30
0.0
 11
131.8186673724381
 21
57.88373816145402
 31
0.0
  0
MTEXT
  5
1ED5
330
1ED2
100
AcDbEntity
  8
11
 62
     6
100
AcDbMText
 10
-151.9234276420826
 20
-53.31137317789781
 30
0.0
 40
12.0
 41
0.0
 71
     5
 72
     1
  1
\A1;\U+2205228
 11
0.922588597159619
 21
0.3857852775716644
 31
0.0
1001
ACAD
1000
MTEXTBEGIN
1070
    73
1070
     1
1070
    44
1040
1.0
1070
    74
1070
     0
1000
MTEXTEND
  0
LINE
  5
1ED6
330
1ED2
100
AcDbEntity
  8
11
100
AcDbLine
 10
109.6765410406072
 20
48.62489149973408
 30
0.0
 11
-100.6736591117858
 21
-39.3341517866054
 31
0.0
  0
SOLID
  5
1ED7
330
1ED2
100
AcDbEntity
  8
11
100
AcDbTrace
 10
119.9760336513793
 20
55.0994920249133
 30
0.0
 11
121.519174761666
 21
51.40913763627482
 31
0.0
 12
109.6765410406072
 22
48.62489149973408
 32
0.0
 13
109.6765410406072
 23
48.62489149973408
 33
0.0
  0
SOLID
  5
1ED8
330
1ED2
100
AcDbEntity
  8
11
100
AcDbTrace
 10
-112.5162928328446
 20
-42.11839792314613
 30
0.0
 11
-110.9731517225579
 21
-45.80875231178461
 31
0.0
 12
-100.6736591117858
 22
-39.3341517866054
 32
0.0
 13
-100.6736591117858
 23
-39.3341517866054
 33
0.0
  0
POINT
  5
1ED9
330
1ED2
100
AcDbEntity
  8
DEFPOINTS
 62
     0
100
AcDbPoint
 10
-100.6736591117858
 20
-39.3341517866054
 30
0.0
  0
POINT
  5
1EDA
330
1ED2
100
AcDbEntity
  8
DEFPOINTS
 62
     0
100
AcDbPoint
 10
109.6765410406072
 20
48.62489149973408
 30
0.0
  0
ENDBLK
  5
1EDC
330
1ED2
100
AcDbEntity
  8
0
100
AcDbBlockEnd
  0
BLOCK
  5
1EE7
330
1EDE
100
AcDbEntity
  8
0
100
AcDbBlockBegin
  2
*D7
 70
     1
 10
0.0
 20
0.0
 30
0.0
  3
*D7
  1

  0
LINE
  5
1F9A
330
1EDE
100
AcDbEntity
  8
11
100
AcDbLine
 10
-308.1772620471131
 20
-222.6626622892919
 30
0.0
 11
-225.6171091834037
 21
-162.643909171913
 31
0.0
  0
LINE
  5
1F9B
330
1EDE
100
AcDbEntity
  8
11
100
AcDbLine
 10
234.6199911122251
 20
171.9346488850417
 30
0.0
 11
244.3262216984247
 21
178.9907871920425
 31
0.0
  0
MTEXT
  5
1F9C
330
1EDE
100
AcDbEntity
  8
11
 62
     6
100
AcDbMText
 10
-275.7935746485459
 20
-190.6195382731032
 30
0.0
 40
12.0
 41
0.0
 71
     5
 72
     1
  1
\A1;\U+2205545-0/+0.2
 11
0.8088525488499628
 21
0.5880115255834007
 31
0.0
1001
ACAD
1000
MTEXTBEGIN
1070
    73
1070
     1
1070
    44
1040
1.0
1070
    74
1070
     0
1000
MTEXTEND
  0
LINE
  5
1F9D
330
1EDE
100
AcDbEntity
  8
11
100
AcDbLine
 10
224.9137605260256
 20
164.8785105780409
 30
0.0
 11
-215.9108785972041
 21
-155.5877708649122
 31
0.0
  0
SOLID
  5
1F9E
330
1EDE
100
AcDbEntity
  8
11
100
AcDbTrace
 10
233.4439680610583
 20
173.5523539827416
 30
0.0
 11
235.7960141633919
 21
170.3169437873418
 31
0.0
 12
224.9137605260256
 22
164.8785105780409
 32
0.0
 13
224.9137605260256
 23
164.8785105780409
 33
0.0
  0
SOLID
  5
1F9F
330
1EDE
100
AcDbEntity
  8
11
100
AcDbTrace
 10
-226.7931322345705
 20
-161.0262040742131
 30
0.0
 11
-224.4410861322369
 21
-164.261614269613
 31
0.0
 12
-215.9108785972041
 22
-155.5877708649122
 32
0.0
 13
-215.9108785972041
 23
-155.5877708649122
 33
0.0
  0
POINT
  5
1FA0
330
1EDE
100
AcDbEntity
  8
DEFPOINTS
 62
     0
100
AcDbPoint
 10
-215.9108785972041
 20
-155.5877708649122
 30
0.0
  0
POINT
  5
1FA1
330
1EDE
100
AcDbEntity
  8
DEFPOINTS
 62
     0
100
AcDbPoint
 10
224.9137605260256
 20
164.8785105780409
 30
0.0
  0
ENDBLK
  5
1EE8
330
1EDE
100
AcDbEntity
  8
0
100
AcDbBlockEnd
  0
BLOCK
  5
1EF3
330
1EEA
100
AcDbEntity
  8
0
100
AcDbBlockBegin
  2
*D8
 70
     1
 10
0.0
 20
0.0
 30
0.0
  3
*D8
  1

  0
LINE
  5
1F92
330
1EEA
100
AcDbEntity
  8
11
100
AcDbLine
 10
-331.19075043884
 20
-385.2088737966518
 30
0.0
 11
-264.3309035385291
 21
-307.5615656030001
 31
0.0
  0
LINE
  5
1F93
330
1EEA
100
AcDbEntity
  8
11
100
AcDbLine
 10
273.3337854673506
 20
316.8523053161288
 30
0.0
 11
281.163853753844
 21
325.9457112033006
 31
0.0
  0
MTEXT
  5
1F94
330
1EEA
100
AcDbEntity
  8
11
 62
     6
100
AcDbMText
 10
-307.4070876866317
 20
-347.0497337757166
 30
0.0
 40
12.0
 41
0.0
 71
     5
 72
     1
  1
\A1;\U+2205800-0/+0.2
 11
0.6525056905411164
 21
0.7577838239309819
 31
0.0
1001
ACAD
1000
MTEXTBEGIN
1070
    73
1070
     1
1070
    44
1040
1.0
1070
    74
1070
     0
1000
MTEXTEND
  0
LINE
  5
1F95
330
1EEA
100
AcDbEntity
  8
11
100
AcDbLine
 10
265.5037171808572
 20
307.758899428957
 30
0.0
 11
-256.5008352520357
 21
-298.4681597158283
 31
0.0
  0
SOLID
  5
1F96
330
1EEA
100
AcDbEntity
  8
11
100
AcDbTrace
 10
271.8182178194886
 20
318.1573166972111
 30
0.0
 11
274.8493531152126
 21
315.5472939350466
 31
0.0
 12
265.5037171808572
 22
307.758899428957
 32
0.0
 13
265.5037171808572
 23
307.758899428957
 33
0.0
  0
SOLID
  5
1F97
330
1EEA
100
AcDbEntity
  8
11
100
AcDbTrace
 10
-265.8464711863911
 20
-306.2565542219179
 30
0.0
 11
-262.8153358906672
 21
-308.8665769840823
 31
0.0
 12
-256.5008352520357
 22
-298.4681597158283
 32
0.0
 13
-256.5008352520357
 23
-298.4681597158283
 33
0.0
  0
POINT
  5
1F98
330
1EEA
100
AcDbEntity
  8
DEFPOINTS
 62
     0
100
AcDbPoint
 10
-256.5008352520357
 20
-298.4681597158283
 30
0.0
  0
POINT
  5
1F99
330
1EEA
100
AcDbEntity
  8
DEFPOINTS
 62
     0
100
AcDbPoint
 10
265.5037171808572
 20
307.758899428957
 30
0.0
  0
ENDBLK
  5
1EF4
330
1EEA
100
AcDbEntity
  8
0
100
AcDbBlockEnd
  0
BLOCK
  5
1EFC
330
1EF6
100
AcDbEntity
  8
0
100
AcDbBlockBegin
  2
*D9
 70
     1
 10
0.0
 20
0.0
 30
0.0
  3
*D9
  1

  0
LINE
  5
1EF7
330
1EF6
100
AcDbEntity
  8
11
100
AcDbLine
 10
-513.8842638990318
 20
-47.67649209548786
 30
0.0
 11
-580.5261755067042
 21
-54.40281357126235
 31
0.0
  0
MTEXT
  5
1EF8
330
1EF6
100
AcDbEntity
  8
11
 62
     6
100
AcDbMText
 10
-530.9710838861526
 20
-42.49117394332841
 30
0.0
 40
12.0
 41
0.0
 71
     5
 72
     1
  1
\A1;R600
 11
0.9949449259712837
 21
0.1004220806595685
 31
0.0
1001
ACAD
1000
MTEXTBEGIN
1070
    73
1070
     1
1070
    44
1040
1.0
1070
    74
1070
     0
1000
MTEXTEND
  0
SOLID
  5
1EF9
330
1EF6
100
AcDbEntity
  8
11
100
AcDbTrace
 10
-580.7270196680234
 20
-52.41292371931979
 30
0.0
 11
-580.3253313453851
 21
-56.39270342320492
 31
0.0
 12
-592.4655146183596
 22
-55.60787853917719
 32
0.0
 13
-592.4655146183596
 23
-55.60787853917719
 33
0.0
  0
POINT
  5
1EFA
330
1EF6
100
AcDbEntity
  8
DEFPOINTS
 62
     0
100
AcDbPoint
 10
-592.4655146183596
 20
-55.60787853917719
 30
0.0
  0
POINT
  5
1EFB
330
1EF6
100
AcDbEntity
  8
DEFPOINTS
 62
     0
100
AcDbPoint
 10
4.501440964410638
 20
4.64536985656415
 30
0.0
  0
ENDBLK
  5
1EFD
330
1EF6
100
AcDbEntity
  8
0
100
AcDbBlockEnd
  0
BLOCK
  5
1F09
330
1EFF
100
AcDbEntity
  8
0
100
AcDbBlockBegin
  2
*D10
 70
     1
 10
0.0
 20
0.0
 30
0.0
  3
*D10
  1

  0
LINE
  5
1F00
330
1EFF
100
AcDbEntity
  8
11
100
AcDbLine
 10
-532.931091957058
 20
-260.3546301434393
 30
0.0
 11
-444.9632801268386
 21
-260.3546301434393
 31
0.0
  0
LINE
  5
1F01
330
1EFF
100
AcDbEntity
  8
11
100
AcDbLine
 10
-532.9310919570615
 20
269.6453698565605
 30
0.0
 11
-444.9632801268385
 21
269.6453698565605
 31
0.0
  0
LINE
  5
1F02
330
1EFF
100
AcDbEntity
  8
11
100
AcDbLine
 10
-446.7132801268386
 20
-248.3546301434393
 30
0.0
 11
-446.7132801268384
 21
257.6453698565605
 31
0.0
  0
SOLID
  5
1F03
330
1EFF
100
AcDbEntity
  8
11
100
AcDbTrace
 10
-448.7132801268385
 20
-248.3546301434393
 30
0.0
 11
-444.7132801268385
 21
-248.3546301434393
 31
0.0
 12
-446.7132801268386
 22
-260.3546301434393
 32
0.0
 13
-446.7132801268386
 23
-260.3546301434393
 33
0.0
  0
SOLID
  5
1F04
330
1EFF
100
AcDbEntity
  8
11
100
AcDbTrace
 10
-448.7132801268384
 20
257.6453698565605
 30
0.0
 11
-444.7132801268384
 21
257.6453698565605
 31
0.0
 12
-446.7132801268384
 22
269.6453698565605
 32
0.0
 13
-446.7132801268384
 23
269.6453698565605
 33
0.0
  0
MTEXT
  5
1F05
330
1EFF
100
AcDbEntity
  8
11
 62
     6
100
AcDbMText
 10
-453.5882801268384
 20
4.645369856560505
 30
0.0
 40
12.0
 41
0.0
 71
     5
 72
     1
  1
\A1;530
 11
0.0000000000000001
 21
1.0
 31
0.0
1001
ACAD
1000
MTEXTBEGIN
1070
    73
1070
     1
1070
    44
1040
1.0
1070
    74
1070
     0
1000
MTEXTEND
  0
POINT
  5
1F06
330
1EFF
100
AcDbEntity
  8
DEFPOINTS
 62
     0
100
AcDbPoint
 10
-533.806091957058
 20
-260.3546301434393
 30
0.0
  0
POINT
  5
1F07
330
1EFF
100
AcDbEntity
  8
DEFPOINTS
 62
     0
100
AcDbPoint
 10
-533.8060919570615
 20
269.6453698565605
 30
0.0
  0
POINT
  5
1F08
330
1EFF
100
AcDbEntity
  8
DEFPOINTS
 62
     0
100
AcDbPoint
 10
-446.7132801268384
 20
269.6453698565605
 30
0.0
  0
ENDBLK
  5
1F0A
330
1EFF
100
AcDbEntity
  8
0
100
AcDbBlockEnd
  0
BLOCK
  5
1F15
330
1F10
100
AcDbEntity
  8
0
100
AcDbBlockBegin
  2
BARROW-R
 70
     0
 10
0.0
 20
0.0
 30
0.0
  3
BARROW-R
  1

  0
TEXT
  5
1F19
330
1F10
100
AcDbEntity
  8
9
100
AcDbText
 10
2.766666666666666
 20
-0.5
 30
0.0
 40
1.0
  1
B
 41
0.7
  7
TXT
 72
     4
 11
3.0
 21
0.0
 31
0.0
100
AcDbText
  0
LINE
  5
1F1A
330
1F10
100
AcDbEntity
  8
9
100
AcDbLine
 10
0.0
 20
0.5
 30
0.0
 11
0.0
 21
-0.5
 31
0.0
  0
SOLID
  5
1F1B
330
1F10
100
AcDbEntity
  8
10
100
AcDbTrace
 10
0.8550631562210355
 20
0.1295546136260981
 30
0.0
 11
0.8550631562210355
 21
-0.1371120530405676
 31
0.0
 12
0.0550631562209674
 22
-0.0037787197072277
 32
0.0
 13
0.0550631562209674
 23
-0.0037787197072277
 33
0.0
  0
LINE
  5
1F1C
330
1F10
100
AcDbEntity
  8
10
100
AcDbLine
 10
0.8550631562210355
 20
-0.0037787197072277
 30
0.0
 11
2.355063156221035
 21
-0.0037787197072277
 31
0.0
  0
ENDBLK
  5
1F16
330
1F10
100
AcDbEntity
  8
0
100
AcDbBlockEnd
  0
BLOCK
  5
1F23
330
1F1E
100
AcDbEntity
  8
0
100
AcDbBlockBegin
  2
BARROW-L
 70
     0
 10
0.0
 20
0.0
 30
0.0
  3
BARROW-L
  1

  0
TEXT
  5
1F1F
330
1F1E
100
AcDbEntity
  8
9
100
AcDbText
 10
-3.733333333333333
 20
-0.5
 30
0.0
 40
1.0
  1
B
 41
0.7
  7
TXT
 72
     4
 11
-3.5
 21
0.0
 31
0.0
100
AcDbText
  0
SOLID
  5
1F20
330
1F1E
100
AcDbEntity
  8
10
100
AcDbTrace
 10
-0.8550631562210355
 20
0.1295546136260981
 30
0.0
 11
-0.8550631562210355
 21
-0.1371120530405676
 31
0.0
 12
-0.0550631562209674
 22
-0.0037787197072277
 32
0.0
 13
-0.0550631562209674
 23
-0.0037787197072277
 33
0.0
  0
LINE
  5
1F21
330
1F1E
100
AcDbEntity
  8
10
100
AcDbLine
 10
-0.8550631562210355
 20
-0.0037787197072277
 30
0.0
 11
-2.355063156221035
 21
-0.0037787197072277
 31
0.0
  0
LINE
  5
1F22
330
1F1E
100
AcDbEntity
  8
9
100
AcDbLine
 10
0.0
 20
0.5
 30
0.0
 11
0.0
 21
-0.5
 31
0.0
  0
ENDBLK
  5
1F24
330
1F1E
100
AcDbEntity
  8
0
100
AcDbBlockEnd
  0
BLOCK
  5
1F2A
330
1F27
100
AcDbEntity
  8
0
100
AcDbBlockBegin
  2
SECT-B-B
 70
     0
 10
0.0
 20
0.0
 30
0.0
  3
SECT-B-B
  1

  0
TEXT
  5
1F28
330
1F27
100
AcDbEntity
  8
9
100
AcDbText
 10
-3.499999999999999
 20
0.0
 30
0.0
 40
1.0
  1
Section B-B
 41
0.7
  7
TXT
 72
     1
 11
0.0
 21
0.0
 31
0.0
100
AcDbText
  0
LINE
  5
1F29
330
1F27
100
AcDbEntity
  8
9
100
AcDbLine
 10
1.015931162567
 20
-0.203205051822394
 30
0.0
 11
3.502169400670965
 21
-0.203205051822394
 31
0.0
  0
ENDBLK
  5
1F2B
330
1F27
100
AcDbEntity
  8
0
100
AcDbBlockEnd
  0
BLOCK
  5
1F43
330
1F2E
100
AcDbEntity
  8
10
 62
     2
100
AcDbBlockBegin
  2
*X14
 70
     1
 10
0.0
 20
0.0
 30
0.0
  3
*X14
  1

  0
LINE
  5
1F2F
330
1F2E
100
AcDbEntity
  8
0
 62
     0
100
AcDbLine
 10
98.91027526411484
 20
102.2499999999999
 30
0.0
 11
100.0
 21
102.2499999999999
 31
0.0
  0
LINE
  5
1F30
330
1F2E
100
AcDbEntity
  8
0
 62
     0
100
AcDbLine
 10
98.50000000000001
 20
102.0
 30
0.0
 11
100.0
 21
102.0
 31
0.0
  0
LINE
  5
1F31
330
1F2E
100
AcDbEntity
  8
0
 62
     0
100
AcDbLine
 10
98.2146428928643
 20
101.75
 30
0.0
 11
100.0
 21
101.75
 31
0.0
  0
LINE
  5
1F32
330
1F2E
100
AcDbEntity
  8
0
 62
     0
100
AcDbLine
 10
98.0
 20
101.5
 30
0.0
 11
100.0
 21
101.5
 31
0.0
  0
LINE
  5
1F33
330
1F2E
100
AcDbEntity
  8
0
 62
     0
100
AcDbLine
 10
97.83493649053889
 20
101.2499999999999
 30
0.0
 11
100.0
 21
101.2499999999999
 31
0.0
  0
LINE
  5
1F34
330
1F2E
100
AcDbEntity
  8
0
 62
     0
100
AcDbLine
 10
97.70871215252208
 20
101.0
 30
0.0
 11
100.0
 21
101.0
 31
0.0
  0
LINE
  5
1F35
330
1F2E
100
AcDbEntity
  8
0
 62
     0
100
AcDbLine
 10
97.61515199645764
 20
100.75
 30
0.0
 11
100.0
 21
100.75
 31
0.0
  0
LINE
  5
1F36
330
1F2E
100
AcDbEntity
  8
0
 62
     0
100
AcDbLine
 10
97.55051025721682
 20
100.5
 30
0.0
 11
100.0
 21
100.5
 31
0.0
  0
LINE
  5
1F37
330
1F2E
100
AcDbEntity
  8
0
 62
     0
100
AcDbLine
 10
97.51253140723346
 20
100.2499999999999
 30
0.0
 11
100.0
 21
100.2499999999999
 31
0.0
  0
LINE
  5
1F38
330
1F2E
100
AcDbEntity
  8
0
 62
     0
100
AcDbLine
 10
97.5
 20
100.0
 30
0.0
 11
100.0
 21
100.0
 31
0.0
  0
LINE
  5
1F39
330
1F2E
100
AcDbEntity
  8
0
 62
     0
100
AcDbLine
 10
97.75
 20
100.0
 30
0.0
 11
97.75
 21
101.0897247358851
 31
0.0
  0
LINE
  5
1F3A
330
1F2E
100
AcDbEntity
  8
0
 62
     0
100
AcDbLine
 10
98.0
 20
100.0
 30
0.0
 11
98.0
 21
101.5
 31
0.0
  0
LINE
  5
1F3B
330
1F2E
100
AcDbEntity
  8
0
 62
     0
100
AcDbLine
 10
98.25000000000001
 20
100.0
 30
0.0
 11
98.25000000000001
 21
101.7853571071357
 31
0.0
  0
LINE
  5
1F3C
330
1F2E
100
AcDbEntity
  8
0
 62
     0
100
AcDbLine
 10
98.50000000000001
 20
100.0
 30
0.0
 11
98.50000000000001
 21
102.0
 31
0.0
  0
LINE
  5
1F3D
330
1F2E
100
AcDbEntity
  8
0
 62
     0
100
AcDbLine
 10
98.75
 20
100.0
 30
0.0
 11
98.75
 21
102.165063509461
 31
0.0
  0
LINE
  5
1F3E
330
1F2E
100
AcDbEntity
  8
0
 62
     0
100
AcDbLine
 10
99.0
 20
100.0
 30
0.0
 11
99.0
 21
102.2912878474779
 31
0.0
  0
LINE
  5
1F3F
330
1F2E
100
AcDbEntity
  8
0
 62
     0
100
AcDbLine
 10
99.25
 20
100.0
 30
0.0
 11
99.25
 21
102.3848480035423
 31
0.0
  0
LINE
  5
1F40
330
1F2E
100
AcDbEntity
  8
0
 62
     0
100
AcDbLine
 10
99.50000000000001
 20
100.0
 30
0.0
 11
99.50000000000001
 21
102.4494897427831
 31
0.0
  0
LINE
  5
1F41
330
1F2E
100
AcDbEntity
  8
0
 62
     0
100
AcDbLine
 10
99.75000000000001
 20
100.0
 30
0.0
 11
99.75000000000001
 21
102.4874685927665
 31
0.0
  0
LINE
  5
1F42
330
1F2E
100
AcDbEntity
  8
0
 62
     0
100
AcDbLine
 10
100.0
 20
100.0
 30
0.0
 11
100.0
 21
102.4999999999999
 31
0.0
  0
ENDBLK
  5
1F44
330
1F2E
100
AcDbEntity
  8
0
 62
     2
100
AcDbBlockEnd
  0
BLOCK
  5
1F58
330
1F45
100
AcDbEntity
  8
10
 62
     2
100
AcDbBlockBegin
  2
*X15
 70
     1
 10
0.0
 20
0.0
 30
0.0
  3
*X15
  1

  0
LINE
  5
1F46
330
1F45
100
AcDbEntity
  8
0
 62
     0
100
AcDbLine
 10
100.0
 20
97.75
 30
0.0
 11
101.0897247358851
 21
97.75
 31
0.0
  0
LINE
  5
1F47
330
1F45
100
AcDbEntity
  8
0
 62
     0
100
AcDbLine
 10
100.0
 20
98.0
 30
0.0
 11
101.5
 21
98.0
 31
0.0
  0
LINE
  5
1F48
330
1F45
100
AcDbEntity
  8
0
 62
     0
100
AcDbLine
 10
100.0
 20
98.25000000000001
 30
0.0
 11
101.7853571071357
 21
98.25000000000001
 31
0.0
  0
LINE
  5
1F49
330
1F45
100
AcDbEntity
  8
0
 62
     0
100
AcDbLine
 10
100.0
 20
98.50000000000001
 30
0.0
 11
102.0
 21
98.50000000000001
 31
0.0
  0
LINE
  5
1F4A
330
1F45
100
AcDbEntity
  8
0
 62
     0
100
AcDbLine
 10
100.0
 20
98.75
 30
0.0
 11
102.165063509461
 21
98.75
 31
0.0
  0
LINE
  5
1F4B
330
1F45
100
AcDbEntity
  8
0
 62
     0
100
AcDbLine
 10
100.0
 20
99.0
 30
0.0
 11
102.2912878474779
 21
99.0
 31
0.0
  0
LINE
  5
1F4C
330
1F45
100
AcDbEntity
  8
0
 62
     0
100
AcDbLine
 10
100.0
 20
99.25
 30
0.0
 11
102.3848480035423
 21
99.25
 31
0.0
  0
LINE
  5
1F4D
330
1F45
100
AcDbEntity
  8
0
 62
     0
100
AcDbLine
 10
100.0
 20
99.50000000000001
 30
0.0
 11
102.4494897427831
 21
99.50000000000001
 31
0.0
  0
LINE
  5
1F4E
330
1F45
100
AcDbEntity
  8
0
 62
     0
100
AcDbLine
 10
100.0
 20
99.75000000000001
 30
0.0
 11
102.4874685927665
 21
99.75000000000001
 31
0.0
  0
LINE
  5
1F4F
330
1F45
100
AcDbEntity
  8
0
 62
     0
100
AcDbLine
 10
102.2499999999999
 20
98.91027526411484
 30
0.0
 11
102.2499999999999
 21
100.0
 31
0.0
  0
LINE
  5
1F50
330
1F45
100
AcDbEntity
  8
0
 62
     0
100
AcDbLine
 10
102.0
 20
98.50000000000001
 30
0.0
 11
102.0
 21
100.0
 31
0.0
  0
LINE
  5
1F51
330
1F45
100
AcDbEntity
  8
0
 62
     0
100
AcDbLine
 10
101.75
 20
98.2146428928643
 30
0.0
 11
101.75
 21
100.0
 31
0.0
  0
LINE
  5
1F52
330
1F45
100
AcDbEntity
  8
0
 62
     0
100
AcDbLine
 10
101.5
 20
98.0
 30
0.0
 11
101.5
 21
100.0
 31
0.0
  0
LINE
  5
1F53
330
1F45
100
AcDbEntity
  8
0
 62
     0
100
AcDbLine
 10
101.2499999999999
 20
97.83493649053889
 30
0.0
 11
101.2499999999999
 21
100.0
 31
0.0
  0
LINE
  5
1F54
330
1F45
100
AcDbEntity
  8
0
 62
     0
100
AcDbLine
 10
101.0
 20
97.70871215252208
 30
0.0
 11
101.0
 21
100.0
 31
0.0
  0
LINE
  5
1F55
330
1F45
100
AcDbEntity
  8
0
 62
     0
100
AcDbLine
 10
100.75
 20
97.61515199645764
 30
0.0
 11
100.75
 21
100.0
 31
0.0
  0
LINE
  5
1F56
330
1F45
100
AcDbEntity
  8
0
 62
     0
100
AcDbLine
 10
100.5
 20
97.55051025721682
 30
0.0
 11
100.5
 21
100.0
 31
0.0
  0
LINE
  5
1F57
330
1F45
100
AcDbEntity
  8
0
 62
     0
100
AcDbLine
 10
100.2499999999999
 20
97.51253140723346
 30
0.0
 11
100.2499999999999
 21
100.0
 31
0.0
  0
ENDBLK
  5
1F59
330
1F45
100
AcDbEntity
  8
0
 62
     2
100
AcDbBlockEnd
  0
BLOCK
  5
1F65
330
1F5A
100
AcDbEntity
  8
0
100
AcDbBlockBegin
  2
FOCUS
 70
     0
 10
0.0
 20
0.0
 30
0.0
  3
FOCUS
  1

  0
CIRCLE
  5
1F5B
330
1F5A
100
AcDbEntity
  8
9
 62
     7
100
AcDbCircle
 10
0.0
 20
0.0
 30
0.0
 40
2.5
  0
INSERT
  5
1F5C
330
1F5A
100
AcDbEntity
  8
9
 62
     7
100
AcDbBlockReference
  2
*X15
 10
-100.0
 20
-100.0
 30
0.0
  0
INSERT
  5
1F5D
330
1F5A
100
AcDbEntity
  8
9
 62
     7
100
AcDbBlockReference
  2
*X14
 10
-100.0
 20
-100.0
 30
0.0
  0
ARC
  5
1F5E
330
1F5A
100
AcDbEntity
  8
9
 62
     7
100
AcDbCircle
 10
0.0
 20
0.0
 30
0.0
 40
2.5
100
AcDbArc
 50
90.0
 51
180.0
  0
ARC
  5
1F5F
330
1F5A
100
AcDbEntity
  8
9
 62
     7
100
AcDbCircle
 10
0.0
 20
0.0
 30
0.0
 40
2.5
100
AcDbArc
 50
270.0
 51
0.0
  0
ARC
  5
1F60
330
1F5A
100
AcDbEntity
  8
9
 62
     7
100
AcDbCircle
 10
0.0
 20
0.0
 30
0.0
 40
2.5
100
AcDbArc
 50
180.0
 51
270.0
  0
LINE
  5
1F61
330
1F5A
100
AcDbEntity
  8
9
 62
     7
100
AcDbLine
 10
0.0
 20
0.0
 30
0.0
 11
0.0
 21
5.0
 31
0.0
  0
LINE
  5
1F62
330
1F5A
100
AcDbEntity
  8
9
 62
     7
100
AcDbLine
 10
0.0
 20
0.0
 30
0.0
 11
0.0
 21
-5.0
 31
0.0
  0
LINE
  5
1F63
330
1F5A
100
AcDbEntity
  8
9
 62
     7
100
AcDbLine
 10
0.0
 20
0.0
 30
0.0
 11
-5.0
 21
0.0
 31
0.0
  0
LINE
  5
1F64
330
1F5A
100
AcDbEntity
  8
9
 62
     7
100
AcDbLine
 10
0.0
 20
0.0
 30
0.0
 11
5.0
 21
0.0
 31
0.0
  0
ENDBLK
  5
1F66
330
1F5A
100
AcDbEntity
  8
0
100
AcDbBlockEnd
  0
BLOCK
  5
1F80
330
1F76
100
AcDbEntity
  8
0
100
AcDbBlockBegin
  2
*D17
 70
     1
 10
0.0
 20
0.0
 30
0.0
  3
*D17
  1

  0
LINE
  5
1F82
330
1F76
100
AcDbEntity
  8
11
100
AcDbLine
 10
777.566231385424
 20
5.520369856564343
 30
0.0
 11
777.566231385424
 21
86.17285720706195
 31
0.0
  0
LINE
  5
1F83
330
1F76
100
AcDbEntity
  8
11
100
AcDbLine
 10
987.566231385424
 20
30.52036985656434
 30
0.0
 11
987.566231385424
 21
86.17285720706195
 31
0.0
  0
LINE
  5
1F84
330
1F76
100
AcDbEntity
  8
11
100
AcDbLine
 10
789.566231385424
 20
84.42285720706195
 30
0.0
 11
975.5662313854241
 21
84.42285720706195
 31
0.0
  0
SOLID
  5
1F85
330
1F76
100
AcDbEntity
  8
11
100
AcDbTrace
 10
789.566231385424
 20
86.42285720706196
 30
0.0
 11
789.566231385424
 21
82.42285720706195
 31
0.0
 12
777.566231385424
 22
84.42285720706195
 32
0.0
 13
777.566231385424
 23
84.42285720706195
 33
0.0
  0
SOLID
  5
1F86
330
1F76
100
AcDbEntity
  8
11
100
AcDbTrace
 10
975.5662313854241
 20
86.42285720706196
 30
0.0
 11
975.5662313854241
 21
82.42285720706195
 31
0.0
 12
987.566231385424
 22
84.42285720706195
 32
0.0
 13
987.566231385424
 23
84.42285720706195
 33
0.0
  0
MTEXT
  5
1F87
330
1F76
100
AcDbEntity
  8
11
 62
     6
100
AcDbMText
 10
882.5662313854241
 20
91.31403830942415
 30
0.0
 40
12.0
 41
0.0
 71
     5
 72
     1
  1
\A1;Back Focal dist. = 210
1001
ACAD
1000
MTEXTBEGIN
1070
    73
1070
     1
1070
    44
1040
1.0
1070
    74
1070
     0
1000
MTEXTEND
  0
POINT
  5
1F88
330
1F76
100
AcDbEntity
  8
DEFPOINTS
 62
     0
100
AcDbPoint
 10
777.566231385424
 20
4.645369856564343
 30
0.0
  0
POINT
  5
1F89
330
1F76
100
AcDbEntity
  8
DEFPOINTS
 62
     0
100
AcDbPoint
 10
987.566231385424
 20
29.64536985656434
 30
0.0
  0
POINT
  5
1F8A
330
1F76
100
AcDbEntity
  8
DEFPOINTS
 62
     0
100
AcDbPoint
 10
987.566231385424
 20
84.42285720706195
 30
0.0
  0
ENDBLK
  5
1F81
330
1F76
100
AcDbEntity
  8
0
100
AcDbBlockEnd
  0
ENDSEC
  0
SECTION
  2
ENTITIES
  0
ACAD_PROXY_ENTITY
  5
1817
330
1A
100
AcDbEntity
  8
AM_FR
 60
     1
100
AcDbProxyEntity
 90
      498
 91
      726
 92
        8
310
0800000000000000
 93
       57
310
ABA900480A050000
340
180C
330
0
330
1816
 94
        0
1001
ACAD
1000
AcadProxyRoundTripData
1071
      615
1071
   393239
1070
     0
  0
VIEWPORT
  5
22
330
17
100
AcDbEntity
 67
     1
  8
0
100
AcDbViewport
 10
396.8390220159376
 20
0.037842747702598
 30
0.0
 40
2424.07525548619
 41
1488.60471409947
 68
     1
 69
     1
1001
ACAD
1000
MVIEW
1002
{
1070
    16
1010
0.0
1020
0.0
1030
0.0
1010
0.0
1020
0.0
1030
1.0
1040
0.0
1040
1488.60471409947
1040
396.8390220159376
1040
0.037842747702598
1040
50.0
1040
0.0
1040
0.0
1070
     0
1070
   100
1070
     1
1070
     1
1070
     0
1070
     0
1070
     0
1070
     0
1040
0.0
1040
0.0
1040
0.0
1040
1.0
1040
1.0
1040
10.0
1040
10.0
1070
     0
1002
{
1002
}
1002
}
  0
ACAD_PROXY_ENTITY
  5
E8
330
17
100
AcDbEntity
 67
     1
  8
0
100
AcDbProxyEntity
 90
      498
 91
      726
 92
        8
310
0800000000000000
 93
        0
 94
        0
1001
ACAD
1000
AcadProxyRoundTripData
1071
      541
1071
   393239
1070
     0
  0
ARC
  5
1D60
330
17
100
AcDbEntity
 67
     1
  8
0
100
AcDbCircle
 10
4.501440964410206
 20
4.645369856564392
 30
0.0
 40
600.0000000000004
100
AcDbArc
 50
333.7897305358062
 51
26.21026946419378
  0
ARC
  5
1D61
330
17
100
AcDbEntity
 67
     1
  8
0
100
AcDbCircle
 10
4.501440964410638
 20
4.645369856564149
 30
0.0
 40
600.0
100
AcDbArc
 50
153.7897305358065
 51
206.2102694641942
  0
LINE
  5
1D62
330
17
100
AcDbEntity
 67
     1
  8
0
100
AcDbLine
 10
-533.806091957058
 20
-260.3546301434393
 30
0.0
 11
-295.1233243671595
 21
-260.3546301434385
 31
0.0
  0
LINE
  5
1D63
330
17
100
AcDbEntity
 67
     1
  8
0
100
AcDbLine
 10
-533.8060919570615
 20
269.6453698565605
 30
0.0
 11
-295.1233243671645
 21
269.6453698565613
 31
0.0
  0
CIRCLE
  5
1D64
330
17
100
AcDbEntity
 67
     1
  8
0
100
AcDbCircle
 10
4.501440964410676
 20
4.645369856564343
 30
0.0
 40
400.0
  0
CIRCLE
  5
1D66
330
17
100
AcDbEntity
 67
     1
  8
0
100
AcDbCircle
 10
4.501440964410676
 20
4.645369856564343
 30
0.0
 40
272.5
  0
CIRCLE
  5
1D67
330
17
100
AcDbEntity
 67
     1
  8
0
100
AcDbCircle
 10
4.501440964410676
 20
4.645369856564343
 30
0.0
 40
114.0
  0
CIRCLE
  5
1D68
330
17
100
AcDbEntity
 67
     1
  8
0
100
AcDbCircle
 10
-382.9985590355893
 20
4.645369856564343
 30
0.0
 40
5.25
  0
CIRCLE
  5
1D69
330
17
100
AcDbEntity
 67
     1
  8
0
100
AcDbCircle
 10
-255.4985590355893
 20
4.645369856564343
 30
0.0
 40
5.25
  0
CIRCLE
  5
1D6A
330
17
100
AcDbEntity
 67
     1
  8
0
100
AcDbCircle
 10
-369.7948167226032
 20
-95.64701012066244
 30
0.0
 40
5.25
  0
CIRCLE
  5
1D6C
330
17
100
AcDbEntity
 67
     1
  8
0
100
AcDbCircle
 10
-331.0834030020592
 20
-189.1046301434356
 30
0.0
 40
5.25
  0
CIRCLE
  5
1D6D
330
17
100
AcDbEntity
 67
     1
  8
0
100
AcDbCircle
 10
-269.5024367453764
 20
-269.3585078532227
 30
0.0
 40
5.25
  0
CIRCLE
  5
1D6E
330
17
100
AcDbEntity
 67
     1
  8
0
100
AcDbCircle
 10
-189.2485590355893
 20
-330.9394741099055
 30
0.0
 40
5.25
  0
CIRCLE
  5
1D6F
330
17
100
AcDbEntity
 67
     1
  8
0
100
AcDbCircle
 10
-95.79093901281622
 20
-369.6508878304496
 30
0.0
 40
5.25
  0
CIRCLE
  5
1D70
330
17
100
AcDbEntity
 67
     1
  8
0
100
AcDbCircle
 10
4.501440964410567
 20
-382.8546301434356
 30
0.0
 40
5.25
  0
CIRCLE
  5
1D71
330
17
100
AcDbEntity
 67
     1
  8
0
100
AcDbCircle
 10
104.7938209416373
 20
-369.6508878304496
 30
0.0
 40
5.25
  0
CIRCLE
  5
1D72
330
17
100
AcDbEntity
 67
     1
  8
0
100
AcDbCircle
 10
198.2514409644105
 20
-330.9394741099056
 30
0.0
 40
5.25
  0
CIRCLE
  5
1D73
330
17
100
AcDbEntity
 67
     1
  8
0
100
AcDbCircle
 10
278.5053186741978
 20
-269.3585078532228
 30
0.0
 40
5.25
  0
CIRCLE
  5
1D74
330
17
100
AcDbEntity
 67
     1
  8
0
100
AcDbCircle
 10
340.0862849308806
 20
-189.1046301434356
 30
0.0
 40
5.25
  0
CIRCLE
  5
1D75
330
17
100
AcDbEntity
 67
     1
  8
0
100
AcDbCircle
 10
378.7976986514246
 20
-95.64701012066237
 30
0.0
 40
5.25
  0
CIRCLE
  5
1D76
330
17
100
AcDbEntity
 67
     1
  8
0
100
AcDbCircle
 10
392.0014409644106
 20
4.645369856564467
 30
0.0
 40
5.25
  0
CIRCLE
  5
1D77
330
17
100
AcDbEntity
 67
     1
  8
0
100
AcDbCircle
 10
378.7976986514245
 20
104.9377498337912
 30
0.0
 40
5.25
  0
CIRCLE
  5
1D78
330
17
100
AcDbEntity
 67
     1
  8
0
100
AcDbCircle
 10
340.0862849308806
 20
198.3953698565645
 30
0.0
 40
5.25
  0
CIRCLE
  5
1D79
330
17
100
AcDbEntity
 67
     1
  8
0
100
AcDbCircle
 10
278.5053186741976
 20
278.6492475663517
 30
0.0
 40
5.25
  0
CIRCLE
  5
1D7A
330
17
100
AcDbEntity
 67
     1
  8
0
100
AcDbCircle
 10
198.2514409644105
 20
340.2302138230344
 30
0.0
 40
5.25
  0
CIRCLE
  5
1D7B
330
17
100
AcDbEntity
 67
     1
  8
0
100
AcDbCircle
 10
104.7938209416374
 20
378.9416275435783
 30
0.0
 40
5.25
  0
CIRCLE
  5
1D7C
330
17
100
AcDbEntity
 67
     1
  8
0
100
AcDbCircle
 10
4.501440964410747
 20
392.1453698565643
 30
0.0
 40
5.25
  0
CIRCLE
  5
1D7D
330
17
100
AcDbEntity
 67
     1
  8
0
100
AcDbCircle
 10
-95.79093901281595
 20
378.9416275435784
 30
0.0
 40
5.25
  0
CIRCLE
  5
1D7E
330
17
100
AcDbEntity
 67
     1
  8
0
100
AcDbCircle
 10
-189.248559035589
 20
340.2302138230345
 30
0.0
 40
5.25
  0
CIRCLE
  5
1D7F
330
17
100
AcDbEntity
 67
     1
  8
0
100
AcDbCircle
 10
-269.5024367453762
 20
278.6492475663518
 30
0.0
 40
5.25
  0
CIRCLE
  5
1D80
330
17
100
AcDbEntity
 67
     1
  8
0
100
AcDbCircle
 10
-331.083403002059
 20
198.3953698565648
 30
0.0
 40
5.25
  0
CIRCLE
  5
1D81
330
17
100
AcDbEntity
 67
     1
  8
0
100
AcDbCircle
 10
-369.7948167226031
 20
104.9377498337917
 30
0.0
 40
5.25
  0
CIRCLE
  5
1D82
330
17
100
AcDbEntity
 67
     1
  8
0
100
AcDbCircle
 10
-246.6392738707471
 20
-62.64758187009106
 30
0.0
 40
5.25
  0
CIRCLE
  5
1D83
330
17
100
AcDbEntity
 67
     1
  8
0
100
AcDbCircle
 10
-220.6651640195433
 20
-125.3546301434356
 30
0.0
 40
5.25
  0
CIRCLE
  5
1D84
330
17
100
AcDbEntity
 67
     1
  8
0
100
AcDbCircle
 10
-179.3463221440917
 20
-179.2023932519379
 30
0.0
 40
5.25
  0
CIRCLE
  5
1D85
330
17
100
AcDbEntity
 67
     1
  8
0
100
AcDbCircle
 10
-125.4985590355893
 20
-220.5212351273897
 30
0.0
 40
5.25
  0
CIRCLE
  5
1D86
330
17
100
AcDbEntity
 67
     1
  8
0
100
AcDbCircle
 10
-62.79151076224477
 20
-246.4953449785934
 30
0.0
 40
5.25
  0
CIRCLE
  5
1D87
330
17
100
AcDbEntity
 67
     1
  8
0
100
AcDbCircle
 10
4.501440964410604
 20
-255.3546301434356
 30
0.0
 40
5.25
  0
CIRCLE
  5
1D88
330
17
100
AcDbEntity
 67
     1
  8
0
100
AcDbCircle
 10
71.79439269106596
 20
-246.4953449785934
 30
0.0
 40
5.25
  0
CIRCLE
  5
1D89
330
17
100
AcDbEntity
 67
     1
  8
0
100
AcDbCircle
 10
134.5014409644106
 20
-220.5212351273897
 30
0.0
 40
5.25
  0
CIRCLE
  5
1D8A
330
17
100
AcDbEntity
 67
     1
  8
0
100
AcDbCircle
 10
188.349204072913
 20
-179.202393251938
 30
0.0
 40
5.25
  0
CIRCLE
  5
1D8B
330
17
100
AcDbEntity
 67
     1
  8
0
100
AcDbCircle
 10
229.6680459483647
 20
-125.3546301434356
 30
0.0
 40
5.25
  0
CIRCLE
  5
1D8C
330
17
100
AcDbEntity
 67
     1
  8
0
100
AcDbCircle
 10
255.6421557995684
 20
-62.647581870091
 30
0.0
 40
5.25
  0
CIRCLE
  5
1D8D
330
17
100
AcDbEntity
 67
     1
  8
0
100
AcDbCircle
 10
264.5014409644106
 20
4.645369856564427
 30
0.0
 40
5.25
  0
CIRCLE
  5
1D8E
330
17
100
AcDbEntity
 67
     1
  8
0
100
AcDbCircle
 10
255.6421557995683
 20
71.93832158321985
 30
0.0
 40
5.25
  0
CIRCLE
  5
1D8F
330
17
100
AcDbEntity
 67
     1
  8
0
100
AcDbCircle
 10
229.6680459483646
 20
134.6453698565644
 30
0.0
 40
5.25
  0
CIRCLE
  5
1D90
330
17
100
AcDbEntity
 67
     1
  8
0
100
AcDbCircle
 10
188.3492040729128
 20
188.4931329650668
 30
0.0
 40
5.25
  0
CIRCLE
  5
1D91
330
17
100
AcDbEntity
 67
     1
  8
0
100
AcDbCircle
 10
134.5014409644105
 20
229.8119748405184
 30
0.0
 40
5.25
  0
CIRCLE
  5
1D92
330
17
100
AcDbEntity
 67
     1
  8
0
100
AcDbCircle
 10
71.79439269106602
 20
255.7860846917221
 30
0.0
 40
5.25
  0
CIRCLE
  5
1D93
330
17
100
AcDbEntity
 67
     1
  8
0
100
AcDbCircle
 10
4.501440964410724
 20
264.6453698565643
 30
0.0
 40
5.25
  0
CIRCLE
  5
1D94
330
17
100
AcDbEntity
 67
     1
  8
0
100
AcDbCircle
 10
-62.7915107622446
 20
255.7860846917221
 30
0.0
 40
5.25
  0
CIRCLE
  5
1D95
330
17
100
AcDbEntity
 67
     1
  8
0
100
AcDbCircle
 10
-125.4985590355891
 20
229.8119748405185
 30
0.0
 40
5.25
  0
CIRCLE
  5
1D96
330
17
100
AcDbEntity
 67
     1
  8
0
100
AcDbCircle
 10
-179.3463221440914
 20
188.4931329650669
 30
0.0
 40
5.25
  0
CIRCLE
  5
1D97
330
17
100
AcDbEntity
 67
     1
  8
0
100
AcDbCircle
 10
-220.6651640195431
 20
134.6453698565646
 30
0.0
 40
5.25
  0
CIRCLE
  5
1D98
330
17
100
AcDbEntity
 67
     1
  8
0
100
AcDbCircle
 10
-246.6392738707469
 20
71.93832158322016
 30
0.0
 40
5.25
  0
LINE
  5
1D99
330
17
100
AcDbEntity
 67
     1
  8
0
100
AcDbLine
 10
304.1262062959826
 20
-260.3546301434364
 30
0.0
 11
542.8089738858812
 21
-260.3546301434356
 31
0.0
  0
LINE
  5
1D9A
330
17
100
AcDbEntity
 67
     1
  8
0
100
AcDbLine
 10
304.1262062959841
 20
269.6453698565635
 30
0.0
 11
542.8089738858812
 21
269.6453698565643
 31
0.0
  0
LWPOLYLINE
  5
1D9B
330
17
100
AcDbEntity
 67
     1
  8
0
100
AcDbPolyline
 90
        4
 70
     1
 43
0.0
 10
-810.5442054356144
 20
-705.3247023136236
 10
1108.290136098503
 20
-705.3247023136236
 10
1108.290136098503
 20
705.3905084131034
 10
-810.5442054356144
 20
705.3905084131034
  0
LWPOLYLINE
  5
1D9C
102
{ACAD_REACTORS
330
1DB9
102
}
330
17
100
AcDbEntity
 67
     1
  8
0
100
AcDbPolyline
 90
        7
 70
     0
 43
0.0
 10
761.5662313854259
 20
404.6453698565643
 10
782.5662313854236
 20
404.6453698565643
 10
782.566231385424
 20
269.6453698565657
 10
787.5662313854241
 20
269.6453698565657
 10
787.5662313854259
 20
-260.3546301434342
 10
782.5662313854259
 20
-260.3546301434342
 10
782.5662313854259
 20
-395.3546301434355
  0
LINE
  5
1D9D
102
{ACAD_REACTORS
330
1DB9
102
}
330
17
100
AcDbEntity
 67
     1
  8
0
100
AcDbLine
 10
761.5662313854259
 20
-395.3546301434357
 30
0.0
 11
782.5662313854259
 21
-395.3546301434356
 31
0.0
  0
LINE
  5
1D9F
102
{ACAD_REACTORS
330
1DB9
102
}
330
17
100
AcDbEntity
 67
     1
  8
0
100
AcDbLine
 10
761.5662313854259
 20
-395.3546301434355
 30
0.0
 11
761.5662313854259
 21
404.6453698565643
 31
0.0
  0
LINE
  5
1DA7
102
{ACAD_REACTORS
330
1DB9
102
}
330
17
100
AcDbEntity
 67
     1
  8
0
100
AcDbLine
 10
782.566231385424
 20
277.1453698565643
 30
0.0
 11
777.566231385424
 21
277.1453698565643
 31
0.0
  0
LINE
  5
1DA8
102
{ACAD_REACTORS
330
1DB9
102
}
330
17
100
AcDbEntity
 67
     1
  8
0
100
AcDbLine
 10
777.566231385424
 20
277.1453698565643
 30
0.0
 11
777.566231385424
 21
-267.8546301434356
 31
0.0
  0
LINE
  5
1DA9
102
{ACAD_REACTORS
330
1DB9
102
}
330
17
100
AcDbEntity
 67
     1
  8
0
100
AcDbLine
 10
777.566231385424
 20
-267.8546301434356
 30
0.0
 11
782.5662313854259
 21
-267.8546301434356
 31
0.0
  0
LINE
  5
1DAA
102
{ACAD_REACTORS
330
1DB9
102
}
330
17
100
AcDbEntity
 67
     1
  8
0
100
AcDbLine
 10
761.5662313854259
 20
-109.3546301434356
 30
0.0
 11
777.566231385424
 21
-109.3546301434356
 31
0.0
  0
LINE
  5
1DAB
102
{ACAD_REACTORS
330
1DB9
102
}
330
17
100
AcDbEntity
 67
     1
  8
0
100
AcDbLine
 10
761.5662313854259
 20
118.6453698565643
 30
0.0
 11
777.566231385424
 21
118.6453698565643
 31
0.0
  0
HATCH
  5
1DB9
330
17
100
AcDbEntity
 67
     1
  8
10
100
AcDbHatch
 10
0.0
 20
0.0
 30
0.0
210
0.0
220
0.0
230
1.0
  2
ANSI31
 70
     0
 71
     1
 91
        2
 92
        7
 72
     0
 73
     1
 93
        6
 10
761.5662313854259
 20
118.6453698565643
 10
777.566231385424
 20
118.6453698565643
 10
777.566231385424
 20
277.1453698565643
 10
782.566231385424
 20
277.1453698565643
 10
782.5662313854236
 20
404.6453698565643
 10
761.566231385426
 20
404.6453698565644
 97
        5
330
1D9C
330
1D9F
330
1DAB
330
1DA8
330
1DA7
 92
        7
 72
     0
 73
     1
 93
        6
 10
761.5662313854259
 20
-395.3546301434357
 10
782.566231385426
 20
-395.3546301434356
 10
782.5662313854259
 20
-267.8546301434356
 10
777.566231385424
 20
-267.8546301434356
 10
777.566231385424
 20
-109.3546301434356
 10
761.5662313854259
 20
-109.3546301434356
 97
        6
330
1DA9
330
1DA8
330
1DAA
330
1D9F
330
1D9D
330
1D9C
 75
     0
 76
     1
 52
0.0
 41
5.0
 77
     0
 78
     1
 53
45.0
 43
-159.5377696023442
 44
0.0
 45
-11.22532015133643
 46
11.22532015133644
 79
     0
 47
1.519053946694521
 98
        2
 10
765.7737565632678
 20
322.8367976560726
 10
771.8513864665819
 20
-315.1658612615087
  0
MTEXT
  5
1DF7
330
17
100
AcDbEntity
 67
     1
  8
10
 62
     6
100
AcDbMText
 10
-187.7696273595784
 20
-505.6916579880708
 30
0.0
 40
12.0
 41
0.0
 71
     9
 72
     1
  1
24 x M12 on ø775
1001
ACAD
1000
MTEXTBEGIN
1070
    73
1070
     1
1070
    44
1040
1.0
1070
    74
1070
     0
1000
MTEXTEND
  0
MTEXT
  5
1DF9
330
17
100
AcDbEntity
 67
     1
  8
10
 62
     6
100
AcDbMText
 10
-178.6531845525596
 20
-557.3394921759863
 30
0.0
 40
12.0
 41
0.0
 71
     9
 72
     1
  1
24 x M12 on ø520
1001
ACAD
1000
MTEXTBEGIN
1070
    73
1070
     1
1070
    44
1040
1.0
1070
    74
1070
     0
1000
MTEXTEND
  0
LEADER
  5
1E24
330
17
100
AcDbEntity
 67
     1
  8
11
100
AcDbLeader
  3
ISO-35
 73
     0
 75
     1
 40
55.43492424049174
 41
146.4
 76
     4
 10
483.1639967784603
 20
-228.5797856483377
 30
0.0
 10
379.8443007098403
 20
-515.680983900555
 30
0.0
 10
345.3591168860575
 20
-483.7808511127946
 30
0.0
 10
341.8591168860575
 20
-483.7808511127946
 30
0.0
340
1E25
1001
ACAD
1000
DSTYLE
1002
{
1070
     5
1000

1070
    43
1040
5.0
1070
    46
1040
1.5
1070
   146
1040
0.7
1070
   176
1070
   256
1070
   177
1070
   256
1070
   178
1070
     6
1070
   271
1070
     2
1070
   272
1070
     2
1002
}
  0
MTEXT
  5
1E25
102
{ACAD_REACTORS
330
1E24
102
}
330
17
100
AcDbEntity
 67
     1
  8
11
 62
     6
100
AcDbMText
 10
340.9841168860575
 20
-482.9058511127946
 30
0.0
 40
12.0
 41
0.0
 71
     9
 72
     1
  1
those two areas is\P5 mm higher than the \Pø800mm  flange
1001
ACAD
1000
MTEXTBEGIN
1070
    73
1070
     1
1070
    44
1040
1.0
1070
    74
1070
     0
1000
MTEXTEND
  0
LINE
  5
1E2A
330
17
100
AcDbEntity
 67
     1
  8
11
100
AcDbLine
 10
726.7358966405481
 20
392.1453698565642
 30
0.0
 11
812.2907952403529
 21
392.1453698565643
 31
0.0
  0
LINE
  5
1E2B
330
17
100
AcDbEntity
 67
     1
  8
11
100
AcDbLine
 10
726.7358966405482
 20
-382.8546301434356
 30
0.0
 11
812.2907952403529
 21
-382.8546301434356
 31
0.0
  0
DIMENSION
  5
1E69
330
17
100
AcDbEntity
 67
     1
  8
11
100
AcDbDimension
  2
*D3
 10
782.5662313854236
 20
480.9020441659008
 30
0.0
 11
772.0662313854248
 21
487.778225268263
 31
0.0
 70
    32
  3
ISO-35
100
AcDbAlignedDimension
 13
761.5662313854259
 23
404.6453698565643
 33
0.0
 14
782.5662313854236
 24
404.6453698565643
 34
0.0
100
AcDbRotatedDimension
1001
ACAD
1000
DSTYLE
1002
{
1070
    41
1040
12.0
1070
    43
1040
5.0
1070
    46
1040
1.5
1070
   146
1040
0.7
1070
   176
1070
   256
1070
   177
1070
   256
1070
   178
1070
     6
1070
   271
1070
     2
1070
   272
1070
     2
1002
}
  0
DIMENSION
  5
1E78
330
17
100
AcDbEntity
 67
     1
  8
11
100
AcDbDimension
  2
*D4
 10
782.566231385424
 20
326.296447602574
 30
0.0
 11
810.0897595228479
 21
333.171447602574
 31
0.0
 70
    32
  3
ISO-35
100
AcDbAlignedDimension
 13
777.566231385424
 23
277.1453698565643
 33
0.0
 14
782.566231385424
 24
277.1453698565643
 34
0.0
100
AcDbRotatedDimension
1001
ACAD
1000
DSTYLE
1002
{
1070
    41
1040
12.0
1070
    43
1040
5.0
1070
    46
1040
1.5
1070
   146
1040
0.7
1070
   176
1070
   256
1070
   177
1070
   256
1070
   178
1070
     6
1070
   271
1070
     2
1070
   272
1070
     2
1002
}
  0
DIMENSION
  5
1EA8
330
17
100
AcDbEntity
 67
     1
  8
11
100
AcDbDimension
  2
*D5
 10
787.566231385425
 20
45.21649507586426
 30
0.0
 11
814.6912313854249
 21
52.09267617822646
 31
0.0
 70
    32
  1
   <>
  3
ISO-35
100
AcDbAlignedDimension
 13
761.5662313854259
 23
4.6453698565644
 33
0.0
 14
787.566231385425
 24
4.645369856565707
 34
0.0
100
AcDbRotatedDimension
1001
ACAD
1000
DSTYLE
1002
{
1070
    41
1040
12.0
1070
    43
1040
5.0
1070
    46
1040
1.5
1070
   146
1040
0.7
1070
   176
1070
   256
1070
   177
1070
   256
1070
   178
1070
     6
1070
   271
1070
     2
1070
   272
1070
     2
1002
}
  0
DIMENSION
  5
1ED1
330
17
100
AcDbEntity
 67
     1
  8
11
100
AcDbDimension
  2
*D6
 10
109.6765410406072
 20
48.62489149973408
 30
0.0
 11
-149.2706982068748
 21
-59.65525945494164
 31
0.0
 70
   163
  3
ISO-35
100
AcDbDiametricDimension
 15
-100.6736591117858
 25
-39.3341517866054
 35
0.0
 40
0.0
1001
ACAD
1000
DSTYLE
1002
{
1070
    41
1040
12.0
1070
    43
1040
5.0
1070
    46
1040
1.5
1070
   146
1040
0.7
1070
   176
1070
   256
1070
   177
1070
   256
1070
   178
1070
     6
1070
   271
1070
     2
1070
   272
1070
     2
1070
   288
1070
     1
1002
}
  0
DIMENSION
  5
1EDD
330
17
100
AcDbEntity
 67
     1
  8
11
100
AcDbDimension
  2
*D7
 10
224.9137605260256
 20
164.8785105780409
 30
0.0
 11
-271.7503009083582
 21
-196.1813548841028
 31
0.0
 70
    35
  1
<>-0/+0.2
  3
ISO-35
100
AcDbDiametricDimension
 15
-215.9108785972041
 25
-155.5877708649122
 35
0.0
 40
0.0
1001
ACAD
1000
DSTYLE
1002
{
1070
    41
1040
12.0
1070
    43
1040
5.0
1070
    46
1040
1.5
1070
   146
1040
0.7
1070
   176
1070
   256
1070
   177
1070
   256
1070
   178
1070
     6
1070
   271
1070
     2
1070
   272
1070
     2
1070
   288
1070
     1
1002
}
  0
DIMENSION
  5
1EE9
330
17
100
AcDbEntity
 67
     1
  8
11
100
AcDbDimension
  2
*D8
 10
265.5037171808572
 20
307.758899428957
 30
0.0
 11
-302.1964288768418
 21
-351.5364810741993
 31
0.0
 70
   163
  1
<>-0/+0.2
  3
ISO-35
100
AcDbDiametricDimension
 15
-256.5008352520357
 25
-298.4681597158283
 35
0.0
 40
0.0
1001
ACAD
1000
DSTYLE
1002
{
1070
    41
1040
12.0
1070
    43
1040
5.0
1070
    46
1040
1.5
1070
   146
1040
0.7
1070
   176
1070
   256
1070
   177
1070
   256
1070
   178
1070
     6
1070
   271
1070
     2
1070
   272
1070
     2
1070
   288
1070
     1
1002
}
  0
DIMENSION
  5
1EF5
330
17
100
AcDbEntity
 67
     1
  8
11
100
AcDbDimension
  2
*D9
 10
4.501440964410638
 20
4.64536985656415
 30
0.0
 11
-530.2806820816181
 21
-49.331420309381
 31
0.0
 70
   164
  3
ISO-35
100
AcDbRadialDimension
 15
-592.4655146183596
 25
-55.60787853917719
 35
0.0
 40
0.0
1001
ACAD
1000
DSTYLE
1002
{
1070
    41
1040
12.0
1070
    43
1040
5.0
1070
    46
1040
1.5
1070
   146
1040
0.7
1070
   176
1070
   256
1070
   177
1070
   256
1070
   178
1070
     6
1070
   271
1070
     2
1070
   272
1070
     2
1070
   288
1070
     1
1002
}
  0
DIMENSION
  5
1EFE
330
17
100
AcDbEntity
 67
     1
  8
11
100
AcDbDimension
  2
*D10
 10
-446.7132801268384
 20
269.6453698565605
 30
0.0
 11
-453.5882801268384
 21
4.645369856560505
 31
0.0
 70
    32
  3
ISO-35
100
AcDbAlignedDimension
 13
-533.806091957058
 23
-260.3546301434393
 33
0.0
 14
-533.8060919570615
 24
269.6453698565605
 34
0.0
 50
90.0
100
AcDbRotatedDimension
1001
ACAD
1000
DSTYLE
1002
{
1070
    41
1040
12.0
1070
    43
1040
5.0
1070
    46
1040
1.5
1070
   146
1040
0.7
1070
   176
1070
   256
1070
   177
1070
   256
1070
   178
1070
     6
1070
   271
1070
     2
1070
   272
1070
     2
1002
}
  0
LEADER
  5
1F0B
330
17
100
AcDbEntity
 67
     1
  8
11
100
AcDbLeader
  3
ISO-35
 76
     4
 10
-97.24959550148469
 20
-372.8899127244135
 30
0.0
 10
-156.5064819389135
 20
-532.3905766632155
 30
0.0
 10
-179.2975930523643
 20
-509.6047666255653
 30
0.0
 10
-314.5248430414535
 20
-509.6047666255653
 30
0.0
1001
ACAD
1000
DSTYLE
1002
{
1070
     5
1000

1070
    41
1040
12.0
1070
    43
1040
5.0
1070
    46
1040
1.5
1070
   146
1040
0.7
1070
   176
1070
   256
1070
   177
1070
   256
1070
   178
1070
     6
1070
   271
1070
     2
1070
   272
1070
     2
1002
}
  0
LEADER
  5
1F0C
330
17
100
AcDbEntity
 67
     1
  8
11
100
AcDbLeader
  3
ISO-35
 76
     4
 10
3.031287663430703
 20
-261.9989743360329
 30
0.0
 10
-154.9870734391088
 20
-581.0003022136361
 30
0.0
 10
-171.7005546492455
 20
-564.290709450976
 30
0.0
 10
-309.9666216379446
 20
-564.290709450976
 30
0.0
1001
ACAD
1000
DSTYLE
1002
{
1070
     5
1000

1070
    41
1040
12.0
1070
    43
1040
5.0
1070
    46
1040
1.5
1070
   146
1040
0.7
1070
   176
1070
   256
1070
   177
1070
   256
1070
   178
1070
     6
1070
   271
1070
     2
1070
   272
1070
     2
1002
}
  0
LINE
  5
1F0D
330
17
100
AcDbEntity
 67
     1
  8
11
100
AcDbLine
 10
4.501440964410704
 20
441.10266401938
 30
0.0
 11
4.501440964410704
 21
-439.7282869374289
 31
0.0
  0
INSERT
  5
1F25
330
17
100
AcDbEntity
 67
     1
  8
11
100
AcDbBlockReference
  2
BARROW-L
 10
4.501440964410704
 20
467.8107266210077
 30
0.0
 41
20.0
 42
20.0
  0
INSERT
  5
1F26
330
17
100
AcDbEntity
 67
     1
  8
11
100
AcDbBlockReference
  2
BARROW-L
 10
4.501440964410704
 20
-460.2462609328153
 30
0.0
 41
20.0
 42
20.0
  0
INSERT
  5
1F2C
330
17
100
AcDbEntity
 67
     1
  8
11
100
AcDbBlockReference
  2
SECT-B-B
 10
758.1209472550908
 20
-465.5095728297751
 30
0.0
 41
20.0
 42
20.0
  0
INSERT
  5
1F67
330
17
100
AcDbEntity
 67
     1
  8
11
100
AcDbBlockReference
  2
FOCUS
 10
987.566231385424
 20
4.645369856564343
 30
0.0
 41
5.0
 42
5.0
  0
DIMENSION
  5
1F75
330
17
100
AcDbEntity
 67
     1
  8
11
100
AcDbDimension
  2
*D17
 10
987.566231385424
 20
84.42285720706195
 30
0.0
 11
882.5662313854241
 21
91.31403830942415
 31
0.0
 70
    32
  1
Back Focal dist. = <>
  3
ISO-35
100
AcDbAlignedDimension
 13
777.566231385424
 23
4.645369856564343
 33
0.0
 14
987.566231385424
 24
29.64536985656434
 34
0.0
100
AcDbRotatedDimension
1001
ACAD
1000
DSTYLE
1002
{
1070
    41
1040
12.0
1070
    43
1040
5.0
1070
    46
1040
1.5
1070
   146
1040
0.7
1070
   176
1070
   256
1070
   177
1070
   256
1070
   178
1070
     6
1070
   271
1070
     2
1070
   272
1070
     2
1002
}
  0
ENDSEC
  0
SECTION
  2
OBJECTS
  0
DICTIONARY
  5
C
330
0
100
AcDbDictionary
  3
ACAD_GROUP
350
D
  3
ACAD_LAYOUT
350
167
  3
ACAD_MLINESTYLE
350
E
  3
ACAD_PLOTSETTINGS
350
168
  3
ACAD_PLOTSTYLENAME
350
165
  3
ACAMCATALOGSTATE
350
125
  3
ACASAPPOBJECT
350
EE
  3
ACASGREF_MASTER
350
9B
  3
ACDBVARIABLEDICTIONARY
350
5D
  3
ACDMSYSVARMGR
350
B4
  3
ACGREF_MASTER
350
99
  3
ACGREFACAD_MASTER
350
18A
  3
ACMDICTIONARY
350
142
  3
ACME_BOM_MANAGER_NAME
350
84
  3
ACME_COMMAND_HISTORY
350
7F
  3
ACME_SCOPE_NAME
350
7E
  3
ACMESTATEMGR
350
7D
  3
ACMESYSVARMANAGER
350
180
  3
ACMSYSTEMVARIABLEMANAGER
350
144
  3
AD_APPL
350
AC
  3
AD_GREF_MODULE
350
AF
  3
AD_HOLENOTE_REPOSITORY
350
AE
  3
AD_MAPI_MODULE
350
18E
  3
ADSYSVARMGR
350
A0
  3
AMDTNAMEDDWGMGR
350
CC
  3
AMG
350
171
  3
AMGSNAPSETTINGS
350
1F2
  3
AMI_MASTER
350
9A
  3
ASURF_STATIC_VARS
350
ED
  3
AUTOCAD_ASSEMBLIES_PROJECT
350
DB
  3
AUTOSURF_SYSVARS
350
EF
  3
DESIGNER_ASSEMBLIES_SYSVARS
350
D3
  3
DWGPROPS
350
1FE1
  3
GREFAM_MODULE
350
26E
  3
ACDBHEADERROUNDTRIPXREC
350
21A3
  0
DICTIONARY
  5
12A
330
1A
100
AcDbDictionary
280
     1
  3
ACAD_INDEX
360
12B
  3
ACAD_LAYOUTSELFREF
360
21C6
  0
DICTIONARY
  5
21C4
330
17
100
AcDbDictionary
280
     1
  3
ACAD_LAYOUTSELFREF
360
21C5
  0
DICTIONARY
  5
D
102
{ACAD_REACTORS
330
C
102
}
330
C
100
AcDbDictionary
  0
DICTIONARY
  5
167
102
{ACAD_REACTORS
330
C
102
}
330
C
100
AcDbDictionary
  0
DICTIONARY
  5
E
102
{ACAD_REACTORS
330
C
102
}
330
C
100
AcDbDictionary
  3
STANDARD
350
13
  0
DICTIONARY
  5
168
102
{ACAD_REACTORS
330
C
102
}
330
C
100
AcDbDictionary
  0
ACDBDICTIONARYWDFLT
  5
165
102
{ACAD_REACTORS
330
C
102
}
330
C
100
AcDbDictionary
281
     1
  3
Normal
350
166
100
AcDbDictionaryWithDefault
340
166
  0
ACAD_PROXY_OBJECT
  5
125
102
{ACAD_REACTORS
330
C
102
}
330
C
100
AcDbProxyObject
 90
      499
 91
      725
 93
      200
310
3FFFFFFFE01B51FFFFFFFE008DC247E0100403FC100001000165
 94
        0
1001
ACAD
1000
AcadProxyRoundTripData
1071
      548
1071
   393239
1070
     0
  0
ACAD_PROXY_OBJECT
  5
EE
102
{ACAD_REACTORS
330
C
102
}
330
C
100
AcDbProxyObject
 90
      499
 91
      725
 93
       10
310
4041
 94
        0
1001
ACAD
1000
AcadProxyRoundTripData
1071
      544
1071
   393239
1070
     0
  0
ACAD_PROXY_OBJECT
  5
9B
102
{ACAD_REACTORS
330
C
102
}
330
C
100
AcDbProxyObject
 90
      499
 91
      725
 93
       34
310
0100004040
 94
        0
1001
ACAD
1000
AcadProxyRoundTripData
1071
      514
1071
   393239
1070
     0
  0
DICTIONARY
  5
5D
102
{ACAD_REACTORS
330
C
102
}
330
C
100
AcDbDictionary
  3
DIMADEC
350
5E
  3
INDEXCTL
350
128
  3
SORTENTS
350
1DAC
  0
ACAD_PROXY_OBJECT
  5
B4
102
{ACAD_REACTORS
330
C
102
}
330
C
100
AcDbProxyObject
 90
      499
 91
      725
 93
      240
310
5251A47A00000000000000000000000000000000000000000000000000005C
330
B5
330
B6
330
B7
330
B8
330
B9
330
BA
330
BB
330
BC
330
C1
330
C2
330
C3
330
C4
330
C5
330
C6
330
C7
330
C8
330
C9
330
197
330
198
330
199
330
19A
330
19B
330
19C
330
19D
330
19E
330
19F
 94
        0
1001
ACAD
1000
AcadProxyRoundTripData
1071
      519
1071
   393239
1070
     0
  0
ACAD_PROXY_OBJECT
  5
99
102
{ACAD_REACTORS
330
C
102
}
330
C
100
AcDbProxyObject
 90
      499
 91
      725
 93
       34
310
0400004280
 94
        0
1001
ACAD
1000
AcadProxyRoundTripData
1071
      567
1071
   393239
1070
     0
  0
ACAD_PROXY_OBJECT
  5
18A
102
{ACAD_REACTORS
330
C
102
}
330
C
100
AcDbProxyObject
 90
      499
 91
      725
 93
      114
310
04000041C000000000000000000014
 94
        0
1001
ACAD
1000
AcadProxyRoundTripData
1071
      567
1071
   393239
1070
     0
  0
DICTIONARY
  5
142
102
{ACAD_REACTORS
330
C
102
}
330
C
100
AcDbDictionary
  3
ACMBOMDATA
350
1A0
  3
ACMSTDDICTIONARY
350
143
  0
ACAD_PROXY_OBJECT
  5
84
102
{ACAD_REACTORS
330
C
102
}
330
C
100
AcDbProxyObject
 90
      499
 91
      725
 93
      108
310
0001004040005065343454E45315
330
0
330
0
330
1815
 94
        0
1001
ACAD
1000
AcadProxyRoundTripData
1071
      505
1071
   393239
1070
     0
  0
ACAD_PROXY_OBJECT
  5
7F
102
{ACAD_REACTORS
330
C
102
}
330
C
100
AcDbProxyObject
 90
      499
 91
      725
 93
     3494
310
478050344494D40405184D5347202D20436F6D6D616E642043414E43454C4C45442E01411353D5916014151549054D160140D11253502014213880B481693D3D3405184D5347202D20436F6D6D616E642043414E43454C4C45442E014191111151125510101461354D1C80B4810DBDB5B585B990810D05390D1531311510B8
310
05045A4F4F4D805045A4F4F4D805045A4F4F4D8050551534156458050644444544495440405184D5347202D20436F6D6D616E642043414E43454C4C45442E014194D055915054E014194D055915054E014390535115149154D15511109353D1102014213880B4815539113C05084E202D20554E444F014115539113E014115
310
539113E014115539113E014115539113E014115539113E01411693D3D36014290535050D512559055116014210535111531155116014210535111531155116014190535353D1116014290535050D5125590551160141905355925155D02014213880B4815539113C05084E202D20554E444F014190535353D1116014194D05
310
5915054D0101461354D1C80B4810DBDB5B585B990810D05390D1531311510B80505515341564580506534156454153805065341564541538
 94
        0
1001
ACAD
1000
AcadProxyRoundTripData
1071
      503
1071
   393239
1070
     0
  0
ACAD_PROXY_OBJECT
  5
7E
102
{ACAD_REACTORS
330
C
102
}
330
C
100
AcDbProxyObject
 90
      499
 91
      725
 93
     1274
310
04000043C00000000000000000001850700800020000000000000000000000000000000000000000000000000000000000000000000000000000000000000000000000000000000000000000000000000000000000000000000000000000000000000000000000000000000000000000000000000000000000000000000000
310
0000000000000000000000000000000000000000000000000000AA40E41640EA9D
360
9C
360
9D
360
9E
360
9F
360
A1
360
A2
360
A3
360
A4
360
A5
360
A6
360
A7
360
A9
360
AA
360
AB
360
AD
360
B0
360
B1
360
B2
360
B3
360
B5
360
B6
360
B7
360
B8
360
B9
360
BA
360
BB
360
BC
360
BE
360
C0
360
C1
360
C2
360
C3
360
C4
360
C5
360
C6
360
C7
360
C8
360
C9
360
CB
360
D4
360
D5
360
D6
360
D7
360
D8
360
D9
360
DA
360
E1
360
E2
360
E3
360
E4
360
E5
360
E6
360
F0
360
F1
360
F2
360
F3
360
F4
360
F5
360
F6
360
F7
360
F8
360
F9
360
FA
360
FB
360
FC
360
FD
360
FE
360
FF
360
100
360
101
360
102
360
103
360
104
360
105
360
106
360
107
360
108
360
109
360
10A
360
10B
360
10C
360
10D
360
10E
360
10F
360
110
360
111
360
112
360
113
360
114
360
115
360
116
360
117
360
118
360
119
360
11A
360
11B
360
11C
360
11D
360
11E
360
11F
360
145
360
146
360
181
360
182
360
183
360
191
360
192
360
195
360
197
360
198
360
199
360
19A
360
19B
360
19C
360
19D
360
19E
360
19F
360
1E0
360
1E4
360
1E6
360
65A
360
A27
360
1068
360
1492
360
180F
360
1813
360
1814
360
1815
360
1816
360
1819
360
181B
360
1829
360
1A86
 94
        0
1001
ACAD
1000
AcadProxyRoundTripData
1071
      502
1071
   393239
1070
     0
  0
ACAD_PROXY_OBJECT
  5
7D
102
{ACAD_REACTORS
330
C
102
}
330
C
100
AcDbProxyObject
 90
      499
 91
      725
 93
       50
310
04000040E412A8
 94
        0
1001
ACAD
1000
AcadProxyRoundTripData
1071
      501
1071
   393239
1070
     0
  0
ACAD_PROXY_OBJECT
  5
180
102
{ACAD_REACTORS
330
C
102
}
330
C
100
AcDbProxyObject
 90
      499
 91
      725
 93
       48
310
90341200000011
330
181
330
182
330
183
 94
        0
1001
ACAD
1000
AcadProxyRoundTripData
1071
      519
1071
   393239
1070
     0
  0
ACAD_PROXY_OBJECT
  5
144
102
{ACAD_REACTORS
330
C
102
}
330
C
100
AcDbProxyObject
 90
      499
 91
      725
 93
       40
310
90240E000001
330
145
330
146
 94
        0
1001
ACAD
1000
AcadProxyRoundTripData
1071
      519
1071
   393239
1070
     0
  0
ACAD_PROXY_OBJECT
  5
AC
102
{ACAD_REACTORS
330
C
102
}
330
C
100
AcDbProxyObject
 90
      499
 91
      725
 93
       42
310
000400004501
330
9C
 94
        0
1001
ACAD
1000
AcadProxyRoundTripData
1071
      523
1071
   393239
1070
     0
  0
ACAD_PROXY_OBJECT
  5
AF
102
{ACAD_REACTORS
330
C
102
}
330
C
100
AcDbProxyObject
 90
      499
 91
      725
 93
      114
310
000000438000000000000000000001
 94
        0
1001
ACAD
1000
AcadProxyRoundTripData
1071
      526
1071
   393239
1070
     0
  0
ACAD_PROXY_OBJECT
  5
AE
102
{ACAD_REACTORS
330
C
102
}
330
C
100
AcDbProxyObject
 90
      499
 91
      725
 93
        8
310
0000
330
AD
 94
        0
1001
ACAD
1000
AcadProxyRoundTripData
1071
      525
1071
   393239
1070
     0
  0
ACAD_PROXY_OBJECT
  5
18E
102
{ACAD_REACTORS
330
C
102
}
330
C
100
AcDbProxyObject
 90
      499
 91
      725
 93
       34
310
0400004440
 94
        0
1001
ACAD
1000
AcadProxyRoundTripData
1071
      570
1071
   393239
1070
     0
  0
ACAD_PROXY_OBJECT
  5
A0
102
{ACAD_REACTORS
330
C
102
}
330
C
100
AcDbProxyObject
 90
      499
 91
      725
 93
      128
310
90D4460000000000000000000000000042
330
A1
330
A2
330
A3
330
A4
330
A5
330
A6
330
A7
330
A9
330
AA
330
AB
330
191
330
192
330
1E4
 94
        0
1001
ACAD
1000
AcadProxyRoundTripData
1071
      519
1071
   393239
1070
     0
  0
ACAD_PROXY_OBJECT
  5
CC
102
{ACAD_REACTORS
330
C
102
}
330
C
100
AcDbProxyObject
 90
      499
 91
      725
 93
       42
310
000100004FC1
330
B0
 94
        0
1001
ACAD
1000
AcadProxyRoundTripData
1071
      531
1071
   393239
1070
     0
  0
DICTIONARY
  5
171
102
{ACAD_REACTORS
330
C
102
}
330
C
100
AcDbDictionary
  3
ACMGSETTINGS
350
172
  3
AMGLAYCFG
350
174
  0
DICTIONARY
  5
1F2
102
{ACAD_REACTORS
330
C
102
}
330
C
100
AcDbDictionary
  3
DIMENSION
350
1F6
  3
FEA
350
1F5
  3
HATCH
350
1F3
  3
SYMBOLS
350
1F4
  0
ACAD_PROXY_OBJECT
  5
9A
102
{ACAD_REACTORS
330
C
102
}
330
C
100
AcDbProxyObject
 90
      499
 91
      725
 93
       34
310
0400004180
 94
        0
1001
ACAD
1000
AcadProxyRoundTripData
1071
      513
1071
   393239
1070
     0
  0
ACAD_PROXY_OBJECT
  5
ED
102
{ACAD_REACTORS
330
C
102
}
330
C
100
AcDbProxyObject
 90
      499
 91
      725
 93
      288
310
4C520492000000000000000000000000000000000000000000000000000000000000000000
330
101
330
102
330
103
330
104
330
105
330
106
330
107
330
108
330
109
330
10A
330
10B
330
10C
330
10D
330
10E
330
10F
330
110
330
111
330
112
330
113
330
114
330
115
330
116
330
117
330
118
330
119
330
11A
330
11B
330
11C
330
11D
330
11E
330
11F
330
1E0
 94
        0
1001
ACAD
1000
AcadProxyRoundTripData
1071
      543
1071
   393239
1070
     0
  0
ACAD_PROXY_OBJECT
  5
DB
102
{ACAD_REACTORS
330
C
102
}
330
C
100
AcDbProxyObject
 90
      499
 91
      725
 93
       74
310
04000048400000000001
330
E4
330
0
330
E5
330
0
330
0
 94
        0
1001
ACAD
1000
AcadProxyRoundTripData
1071
      532
1071
   393239
1070
     0
  0
ACAD_PROXY_OBJECT
  5
EF
102
{ACAD_REACTORS
330
C
102
}
330
C
100
AcDbProxyObject
 90
      499
 91
      725
 93
      168
310
4C511456000000000000000000000000000000000000
330
F0
330
F1
330
F2
330
F3
330
F4
330
F5
330
F6
330
F7
330
F8
330
F9
330
FA
330
FB
330
FC
330
FD
330
FE
330
FF
330
100
 94
        0
1001
ACAD
1000
AcadProxyRoundTripData
1071
      519
1071
   393239
1070
     0
  0
ACAD_PROXY_OBJECT
  5
D3
102
{ACAD_REACTORS
330
C
102
}
330
C
100
AcDbProxyObject
 90
      499
 91
      725
 93
       96
310
90943600000000000000000000
330
D4
330
D5
330
D6
330
D7
330
D8
330
D9
330
DA
330
195
330
1E6
 94
        0
1001
ACAD
1000
AcadProxyRoundTripData
1071
      519
1071
   393239
1070
     0
  0
XRECORD
  5
1FE1
102
{ACAD_REACTORS
330
C
102
}
330
C
100
AcDbXrecord
  1
DWGPROPS COOKIE
  2

  3

  4

  6

  7

  8

  9

300
AmdtFileType=84
301
=
302
=
303
=
304
=
305
=
306
=
307
=
308
=
309
=
 40
0.105408275462963
 41
2451893.359713171
 42
2451894.470087546
  1

 90
        1
  0
ACAD_PROXY_OBJECT
  5
26E
102
{ACAD_REACTORS
330
C
102
}
330
C
100
AcDbProxyObject
 90
      499
 91
      725
 93
        8
310
0200
 94
        0
1001
ACAD
1000
AcadProxyRoundTripData
1071
      609
1071
   393239
1070
     0
  0
DICTIONARY
  5
21A3
102
{ACAD_REACTORS
330
C
102
}
330
C
100
AcDbDictionary
  3
TSTACKALIGN
350
21A4
  3
TSTACKSIZE
350
21A5
  3
HYPERLINKBASE
350
21A6
  3
STYLESHEET
350
21A7
  3
LAYOUTDICT
350
21A8
  3
PLOTSETDICT
350
21A9
  3
PLOTSTYLNAMDICT
350
21AA
  3
LWETCUNION
350
21AB
  3
INSUNITS
350
21AC
  3
CEPSNTYPE
350
21AD
  3
FINGERPRINTGUID
350
21AE
  3
VERSIONGUID
350
21AF
  3
PSVPSCALE
350
21B0
  3
DIMSTYLEDATA
350
21B1
  3
PUCSORTHOREF
350
21B2
  3
PUCSORTHOVIEW
350
21B3
  3
PUCSBASE
350
21B4
  3
PUCSORGTOP
350
21B5
  3
PUCSORGBOTTOM
350
21B6
  3
PUCSORGLEFT
350
21B7
  3
PUCSORGRIGHT
350
21B8
  3
PUCSORGFRONT
350
21B9
  3
PUCSORGBACK
350
21BA
  3
UCSORTHOREF
350
21BB
  3
UCSORTHOVIEW
350
21BC
  3
UCSBASE
350
21BD
  3
UCSORGTOP
350
21BE
  3
UCSORGBOTTOM
350
21BF
  3
UCSORGLEFT
350
21C0
  3
UCSORGRIGHT
350
21C1
  3
UCSORGFRONT
350
21C2
  3
UCSORGBACK
350
21C3
  0
DICTIONARY
  5
12B
102
{ACAD_REACTORS
330
12A
102
}
330
12A
100
AcDbDictionary
  3
*A1
350
12C
  0
XRECORD
  5
21C6
102
{ACAD_REACTORS
330
12A
102
}
330
12A
100
AcDbXrecord
340
1A
  0
XRECORD
  5
21C5
102
{ACAD_REACTORS
330
21C4
102
}
330
21C4
100
AcDbXrecord
340
17
  0
MLINESTYLE
  5
13
102
{ACAD_REACTORS
330
E
102
}
330
E
100
AcDbMlineStyle
  2
STANDARD
 70
     0
  3

 62
     0
 51
90.0
 52
90.0
 71
     2
 49
0.5
 62
   256
  6
BYLAYER
 49
-0.5
 62
   256
  6
BYLAYER
  0
ACDBPLACEHOLDER
  5
166
102
{ACAD_REACTORS
330
165
102
}
330
165
100
AcDbPlaceHolder
280
     0
  0
DICTIONARYVAR
  5
5E
102
{ACAD_REACTORS
330
5D
102
}
330
5D
100
DictionaryVariables
280
     0
  1
0
  0
DICTIONARYVAR
  5
128
102
{ACAD_REACTORS
330
5D
102
}
330
5D
100
DictionaryVariables
280
     0
  1
1
  0
DICTIONARYVAR
  5
1DAC
102
{ACAD_REACTORS
330
5D
102
}
330
5D
100
DictionaryVariables
280
     0
  1
96
  0
ACAD_PROXY_OBJECT
  5
1A0
102
{ACAD_REACTORS
330
142
102
}
330
142
100
AcDbProxyObject
 90
      499
 91
      725
 93
      118
310
405010040CA904C415CD5B074D5049
350
1A1
 94
        0
1001
ACAD
1000
AcadProxyRoundTripData
1071
      574
1071
   393239
1070
     0
  0
DICTIONARY
  5
143
102
{ACAD_REACTORS
330
142
102
}
330
142
100
AcDbDictionary
  3
ANSI
350
15F
  3
BSI
350
160
  3
DIN
350
161
  3
ISO
350
162
  3
JIS
350
15E
  0
ACAD_PROXY_OBJECT
  5
9C
330
0
100
AcDbProxyObject
 90
      499
 91
      725
 93
      674
310
000100000000405AA6A9AA40518576564204E6F762031322030383A30323A323320313939370141D18B8C8B8C0D4E40518467269204465632031352031313A32323A3531203230303001424D0B8C0B8D4D8B8C4C81
330
7E
330
9D
330
9E
330
A0
330
0
330
0
 94
        0
1001
ACAD
1000
AcadProxyRoundTripData
1071
      515
1071
   393239
1070
     0
  0
ACAD_PROXY_OBJECT
  5
9D
330
0
100
AcDbProxyObject
 90
      499
 91
      725
 93
       86
310
00016D65E6A80820000000
330
7E
330
9D
330
9D
 94
        0
1001
ACAD
1000
AcadProxyRoundTripData
1071
      516
1071
   393239
1070
     0
  0
ACAD_PROXY_OBJECT
  5
9E
330
0
100
AcDbProxyObject
 90
      499
 91
      725
 93
       48
310
00010000000011
330
7E
330
0
330
9F
330
0
330
0
 94
        0
1001
ACAD
1000
AcadProxyRoundTripData
1071
      517
1071
   393239
1070
     0
  0
ACAD_PROXY_OBJECT
  5
9F
330
0
100
AcDbProxyObject
 90
      499
 91
      725
 93
       40
310
000100AAAA00
330
7E
330
0
 94
        0
1001
ACAD
1000
AcadProxyRoundTripData
1071
      518
1071
   393239
1070
     0
  0
ACAD_PROXY_OBJECT
  5
A1
330
0
100
AcDbProxyObject
 90
      499
 91
      725
 93
      124
310
00010142905350D3D39114D414D69050
330
7E
 94
        0
1001
ACAD
1000
AcadProxyRoundTripData
1071
      520
1071
   393239
1070
     0
  0
ACAD_PROXY_OBJECT
  5
A2
330
0
100
AcDbProxyObject
 90
      499
 91
      725
 93
      124
310
000101429053549553115353D1115011
330
7E
 94
        0
1001
ACAD
1000
AcadProxyRoundTripData
1071
      520
1071
   393239
1070
     0
  0
ACAD_PROXY_OBJECT
  5
A3
330
0
100
AcDbProxyObject
 90
      499
 91
      725
 93
      108
310
00010142105354D2D353D1115013
330
7E
 94
        0
1001
ACAD
1000
AcadProxyRoundTripData
1071
      520
1071
   393239
1070
     0
  0
ACAD_PROXY_OBJECT
  5
A4
330
0
100
AcDbProxyObject
 90
      499
 91
      725
 93
      140
310
000101435053511253511254D41353D11164
330
7E
 94
        0
1001
ACAD
1000
AcadProxyRoundTripData
1071
      520
1071
   393239
1070
     0
  0
ACAD_PROXY_OBJECT
  5
A5
330
0
100
AcDbProxyObject
 90
      499
 91
      725
 93
      180
310
00010142905354D2D05391D513D3000000000000010404
330
7E
 94
        0
1001
ACAD
1000
AcadProxyRoundTripData
1071
      521
1071
   393239
1070
     0
  0
ACAD_PROXY_OBJECT
  5
A6
330
0
100
AcDbProxyObject
 90
      499
 91
      725
 93
      164
310
00010142505354D2D4D516531140505434F4E542A3
330
7E
 94
        0
1001
ACAD
1000
AcadProxyRoundTripData
1071
      522
1071
   393239
1070
     0
  0
ACAD_PROXY_OBJECT
  5
A7
330
0
100
AcDbProxyObject
 90
      499
 91
      725
 93
      108
310
00010142105350D3511112535016
330
7E
 94
        0
1001
ACAD
1000
AcadProxyRoundTripData
1071
      520
1071
   393239
1070
     0
  0
ACAD_PROXY_OBJECT
  5
A9
330
0
100
AcDbProxyObject
 90
      499
 91
      725
 93
      108
310
00010142105350D3D35414D59010
330
7E
 94
        0
1001
ACAD
1000
AcadProxyRoundTripData
1071
      520
1071
   393239
1070
     0
  0
ACAD_PROXY_OBJECT
  5
AA
330
0
100
AcDbProxyObject
 90
      499
 91
      725
 93
      164
310
0001014290535410549514D4119600504504152545
330
7E
 94
        0
1001
ACAD
1000
AcadProxyRoundTripData
1071
      522
1071
   393239
1070
     0
  0
ACAD_PROXY_OBJECT
  5
AB
330
0
100
AcDbProxyObject
 90
      499
 91
      725
 93
      116
310
000101425053511254D410D3D39019
330
7E
 94
        0
1001
ACAD
1000
AcadProxyRoundTripData
1071
      520
1071
   393239
1070
     0
  0
ACAD_PROXY_OBJECT
  5
AD
330
0
100
AcDbProxyObject
 90
      499
 91
      725
 93
     3196
310
0001419078050A544852555F4452494C4C0142D09312539117D1149253130050A544852555F43424F52450142D09312539117D0D093D4914050A544852555F4353494E4B0142D09312539117D0D4D25392D0641E01459EC94958C8094950535112504815121493D551D20B9F4051C7B252563202525414D444941205820252
310
5414D44455020444545507D014F5EC94958C8094950535112504815121493D551D20B9F57141ED0D093D49148094958C80949505350D112504816080949505350D091115408111151541F405437B252563202525414D4449412058202525414D44455020444545507D5C507B43424F524520252563202525414D4344494120
310
58202525414D434244455020444545507D014EDEC94958C8094950535112504815121493D551D20B9F57141ED0D4D25392C8094958C80949505350D112504816080949505350D4D05391C949591F405417B252563202525414D4449412058202525414D44455020444545507D5C507B4353494E4B20252563202525414D434
310
449412058202525414D4353414E472525647D5
330
7E
 94
        0
1001
ACAD
1000
AcadProxyRoundTripData
1071
      524
1071
   393239
1070
     0
  0
ACAD_PROXY_OBJECT
  5
B0
330
0
100
AcDbProxyObject
 90
      499
 91
      725
 93
      438
310
0001014119185D1940506442E322E3539014119185D1940509342E302E35362E313241901000041905394D24CCC6000000000000051019
330
7E
330
B1
330
B4
 94
        0
1001
ACAD
1000
AcadProxyRoundTripData
1071
      527
1071
   393239
1070
     0
  0
ACAD_PROXY_OBJECT
  5
B1
330
0
100
AcDbProxyObject
 90
      499
 91
      725
 93
       48
310
000190140A0011
330
7E
330
B2
 94
        0
1001
ACAD
1000
AcadProxyRoundTripData
1071
      528
1071
   393239
1070
     0
  0
ACAD_PROXY_OBJECT
  5
B2
330
0
100
AcDbProxyObject
 90
      499
 91
      725
 93
       48
310
0001AA00000011
330
7E
330
16A
330
B3
330
E8
 94
        0
1001
ACAD
1000
AcadProxyRoundTripData
1071
      529
1071
   393239
1070
     0
  0
ACAD_PROXY_OBJECT
  5
B3
330
0
100
AcDbProxyObject
 90
      499
 91
      725
 93
       28
310
0001AAA0
330
7E
 94
        0
1001
ACAD
1000
AcadProxyRoundTripData
1071
      530
1071
   393239
1070
     0
  0
ACAD_PROXY_OBJECT
  5
B5
330
0
100
AcDbProxyObject
 90
      499
 91
      725
 93
      108
310
000101421053521310D05310D013
330
7E
 94
        0
1001
ACAD
1000
AcadProxyRoundTripData
1071
      520
1071
   393239
1070
     0
  0
ACAD_PROXY_OBJECT
  5
B6
330
0
100
AcDbProxyObject
 90
      499
 91
      725
 93
      116
310
000101429053541493D29516541162
330
7E
 94
        0
1001
ACAD
1000
AcadProxyRoundTripData
1071
      520
1071
   393239
1070
     0
  0
ACAD_PROXY_OBJECT
  5
B7
330
0
100
AcDbProxyObject
 90
      499
 91
      725
 93
      124
310
00010142905354915554D15112535014
330
7E
 94
        0
1001
ACAD
1000
AcadProxyRoundTripData
1071
      520
1071
   393239
1070
     0
  0
ACAD_PROXY_OBJECT
  5
B8
330
0
100
AcDbProxyObject
 90
      499
 91
      725
 93
      132
310
00010143105354D150D51253D391125361
330
7E
 94
        0
1001
ACAD
1000
AcadProxyRoundTripData
1071
      520
1071
   393239
1070
     0
  0
ACAD_PROXY_OBJECT
  5
B9
330
0
100
AcDbProxyObject
 90
      499
 91
      725
 93
      124
310
00010142905355941093D49111549014
330
7E
 94
        0
1001
ACAD
1000
AcadProxyRoundTripData
1071
      520
1071
   393239
1070
     0
  0
ACAD_PROXY_OBJECT
  5
BA
330
0
100
AcDbProxyObject
 90
      499
 91
      725
 93
      116
310
0001014290535115D1D0D3D313D4A1
330
7E
 94
        0
1001
ACAD
1000
AcadProxyRoundTripData
1071
      520
1071
   393239
1070
     0
  0
ACAD_PROXY_OBJECT
  5
BB
330
0
100
AcDbProxyObject
 90
      499
 91
      725
 93
      148
310
00010143505355925155D49151949154D21014
330
7E
 94
        0
1001
ACAD
1000
AcadProxyRoundTripData
1071
      520
1071
   393239
1070
     0
  0
ACAD_PROXY_OBJECT
  5
BC
330
0
100
AcDbProxyObject
 90
      499
 91
      725
 93
      172
310
00010144105350539393D51154149154D15495915014
330
7E
 94
        0
1001
ACAD
1000
AcadProxyRoundTripData
1071
      520
1071
   393239
1070
     0
  0
ACAD_PROXY_OBJECT
  5
BE
330
0
100
AcDbProxyObject
 90
      499
 91
      725
 93
      180
310
00010142905352125113151654114050648494444454E3
330
7E
 94
        0
1001
ACAD
1000
AcadProxyRoundTripData
1071
      522
1071
   393239
1070
     0
  0
ACAD_PROXY_OBJECT
  5
C0
330
0
100
AcDbProxyObject
 90
      499
 91
      725
 93
      196
310
00010142905354D150D315165411405085048414E544F4D321
330
7E
 94
        0
1001
ACAD
1000
AcadProxyRoundTripData
1071
      522
1071
   393239
1070
     0
  0
ACAD_PROXY_OBJECT
  5
C1
330
0
100
AcDbProxyObject
 90
      499
 91
      725
 93
      108
310
00010142105354D51114D0D51040
330
7E
 94
        0
1001
ACAD
1000
AcadProxyRoundTripData
1071
      520
1071
   393239
1070
     0
  0
ACAD_PROXY_OBJECT
  5
C2
330
0
100
AcDbProxyObject
 90
      499
 91
      725
 93
      108
310
00010142105354D5111510541046
330
7E
 94
        0
1001
ACAD
1000
AcadProxyRoundTripData
1071
      520
1071
   393239
1070
     0
  0
ACAD_PROXY_OBJECT
  5
C3
330
0
100
AcDbProxyObject
 90
      499
 91
      725
 93
      108
310
00010142105354D5111115131040
330
7E
 94
        0
1001
ACAD
1000
AcadProxyRoundTripData
1071
      520
1071
   393239
1070
     0
  0
ACAD_PROXY_OBJECT
  5
C4
330
0
100
AcDbProxyObject
 90
      499
 91
      725
 93
      148
310
00010141905350D310D3466666666666606400
330
7E
 94
        0
1001
ACAD
1000
AcadProxyRoundTripData
1071
      521
1071
   393239
1070
     0
  0
ACAD_PROXY_OBJECT
  5
C5
330
0
100
AcDbProxyObject
 90
      499
 91
      725
 93
      156
310
00010141D05350D311D05400000000000001040F
330
7E
 94
        0
1001
ACAD
1000
AcadProxyRoundTripData
1071
      521
1071
   393239
1070
     0
  0
ACAD_PROXY_OBJECT
  5
C6
330
0
100
AcDbProxyObject
 90
      499
 91
      725
 93
      164
310
00010142105350D313D4D215066666666666606404
330
7E
 94
        0
1001
ACAD
1000
AcadProxyRoundTripData
1071
      521
1071
   393239
1070
     0
  0
ACAD_PROXY_OBJECT
  5
C7
330
0
100
AcDbProxyObject
 90
      499
 91
      725
 93
      100
310
00010141D05350D31410549012
330
7E
 94
        0
1001
ACAD
1000
AcadProxyRoundTripData
1071
      520
1071
   393239
1070
     0
  0
ACAD_PROXY_OBJECT
  5
C8
330
0
100
AcDbProxyObject
 90
      499
 91
      725
 93
      100
310
0001014210535590539254D220
330
7E
 94
        0
1001
ACAD
1000
AcadProxyRoundTripData
1071
      520
1071
   393239
1070
     0
  0
ACAD_PROXY_OBJECT
  5
C9
330
0
100
AcDbProxyObject
 90
      499
 91
      725
 93
      188
310
00010142D0535312539155121250D2C295C8FC2F5289C3FE
330
7E
 94
        0
1001
ACAD
1000
AcadProxyRoundTripData
1071
      521
1071
   393239
1070
     0
  0
ACAD_PROXY_OBJECT
  5
CB
330
0
100
AcDbProxyObject
 90
      499
 91
      725
 93
      164
310
00010142105350D3151654114050643454E5445524
330
7E
 94
        0
1001
ACAD
1000
AcadProxyRoundTripData
1071
      522
1071
   393239
1070
     0
  0
ACAD_PROXY_OBJECT
  5
D4
330
0
100
AcDbProxyObject
 90
      499
 91
      725
 93
      132
310
00010142D05050555513D4D3D315915011
330
7E
 94
        0
1001
ACAD
1000
AcadProxyRoundTripData
1071
      520
1071
   393239
1070
     0
  0
ACAD_PROXY_OBJECT
  5
D5
330
0
100
AcDbProxyObject
 90
      499
 91
      725
 93
      156
310
00010143905050555513D054D4D1535093115015
330
7E
 94
        0
1001
ACAD
1000
AcadProxyRoundTripData
1071
      520
1071
   393239
1070
     0
  0
ACAD_PROXY_OBJECT
  5
D6
330
0
100
AcDbProxyObject
 90
      499
 91
      725
 93
      148
310
00010143505055925155D49154D513D4915014
330
7E
 94
        0
1001
ACAD
1000
AcadProxyRoundTripData
1071
      520
1071
   393239
1070
     0
  0
ACAD_PROXY_OBJECT
  5
D7
330
0
100
AcDbProxyObject
 90
      499
 91
      725
 93
      124
310
00010142D050525394D15495105094E6
330
7E
 94
        0
1001
ACAD
1000
AcadProxyRoundTripData
1071
      520
1071
   393239
1070
     0
  0
ACAD_PROXY_OBJECT
  5
D8
330
0
100
AcDbProxyObject
 90
      499
 91
      725
 93
      148
310
00010143505054D0D153915554111055115014
330
7E
 94
        0
1001
ACAD
1000
AcadProxyRoundTripData
1071
      520
1071
   393239
1070
     0
  0
ACAD_PROXY_OBJECT
  5
D9
330
0
100
AcDbProxyObject
 90
      499
 91
      725
 93
      172
310
00010143105054D5509054D4D3541196005035355420
330
7E
 94
        0
1001
ACAD
1000
AcadProxyRoundTripData
1071
      522
1071
   393239
1070
     0
  0
ACAD_PROXY_OBJECT
  5
DA
330
0
100
AcDbProxyObject
 90
      499
 91
      725
 93
      172
310
00010142905054D0D15391541196005055343454E450
330
7E
 94
        0
1001
ACAD
1000
AcadProxyRoundTripData
1071
      522
1071
   393239
1070
     0
  0
ACAD_PROXY_OBJECT
  5
E1
330
0
100
AcDbProxyObject
 90
      499
 91
      725
 93
       32
310
0001000000
330
7E
340
DE
330
E3
330
DE
 94
        0
1001
ACAD
1000
AcadProxyRoundTripData
1071
      535
1071
   393239
1070
     0
  0
ACAD_PROXY_OBJECT
  5
E2
330
0
100
AcDbProxyObject
 90
      499
 91
      725
 93
       18
310
0001B0
330
7E
 94
        0
1001
ACAD
1000
AcadProxyRoundTripData
1071
      536
1071
   393239
1070
     0
  0
ACAD_PROXY_OBJECT
  5
E3
330
0
100
AcDbProxyObject
 90
      499
 91
      725
 93
      175
310
00010143505110541513D49193105391D15050055400
330
7E
330
E1
330
E2
 94
        0
1001
ACAD
1000
AcadProxyRoundTripData
1071
      537
1071
   393239
1070
     0
  0
ACAD_PROXY_OBJECT
  5
E4
330
0
100
AcDbProxyObject
 90
      499
 91
      725
 93
       48
310
000100A40EAA11
330
7E
330
E3
 94
        0
1001
ACAD
1000
AcadProxyRoundTripData
1071
      538
1071
   393239
1070
     0
  0
ACAD_PROXY_OBJECT
  5
E5
330
0
100
AcDbProxyObject
 90
      499
 91
      725
 93
      112
310
000190240E00000000000000A41665
330
7E
330
E6
330
181B
330
E6
330
E6
330
E6
330
E6
330
181B
 94
        0
1001
ACAD
1000
AcadProxyRoundTripData
1071
      539
1071
   393239
1070
     0
  0
ACAD_PROXY_OBJECT
  5
E6
330
0
100
AcDbProxyObject
 90
      499
 91
      725
 93
     1109
310
0001000040412BE767F8889744031DF7B77DDA09BD000000000000003540AAAAAA12473E6D08172EAFC7120E8EC149EEE3F0A7B9450C1D9F46FC4C00714FF5A0A1C014221CEEB523CAB0073CB0D48043E89402D88E8715B4E64D00B623A1C56D39934000000000000012502A363D42DA0F6A61D004421AA008A1D6F4000000
310
00000000D501A9806A40EAA1
330
7E
330
E5
330
E3
 94
        0
1001
ACAD
1000
AcadProxyRoundTripData
1071
      540
1071
   393239
1070
     0
  0
ACAD_PROXY_OBJECT
  5
F0
330
0
100
AcDbProxyObject
 90
      499
 91
      725
 93
      116
310
000101425053541051D1531153919D
330
7E
 94
        0
1001
ACAD
1000
AcadProxyRoundTripData
1071
      520
1071
   393239
1070
     0
  0
ACAD_PROXY_OBJECT
  5
F1
330
0
100
AcDbProxyObject
 90
      499
 91
      725
 93
      108
310
000101421053555312539154D053
330
7E
 94
        0
1001
ACAD
1000
AcadProxyRoundTripData
1071
      520
1071
   393239
1070
     0
  0
ACAD_PROXY_OBJECT
  5
F2
330
0
100
AcDbProxyObject
 90
      499
 91
      725
 93
      108
310
000101421053559312539154D033
330
7E
 94
        0
1001
ACAD
1000
AcadProxyRoundTripData
1071
      520
1071
   393239
1070
     0
  0
ACAD_PROXY_OBJECT
  5
F3
330
0
100
AcDbProxyObject
 90
      499
 91
      725
 93
      132
310
00010143105354D1911254D41353D11160
330
7E
 94
        0
1001
ACAD
1000
AcadProxyRoundTripData
1071
      520
1071
   393239
1070
     0
  0
ACAD_PROXY_OBJECT
  5
F4
330
0
100
AcDbProxyObject
 90
      499
 91
      725
 93
      172
310
00010142505354119255105391C3FD038C6A6F104403
330
7E
 94
        0
1001
ACAD
1000
AcadProxyRoundTripData
1071
      521
1071
   393239
1070
     0
  0
ACAD_PROXY_OBJECT
  5
F5
330
0
100
AcDbProxyObject
 90
      499
 91
      725
 93
      164
310
000101421053559150D05551C00000000000028403
330
7E
 94
        0
1001
ACAD
1000
AcadProxyRoundTripData
1071
      521
1071
   393239
1070
     0
  0
ACAD_PROXY_OBJECT
  5
F6
330
0
100
AcDbProxyObject
 90
      499
 91
      725
 93
      180
310
00010142905350931153911513D30000000000000D03F3
330
7E
 94
        0
1001
ACAD
1000
AcadProxyRoundTripData
1071
      521
1071
   393239
1070
     0
  0
ACAD_PROXY_OBJECT
  5
F7
330
0
100
AcDbProxyObject
 90
      499
 91
      725
 93
      172
310
0001014250535293D25391D0540000000000000D03F2
330
7E
 94
        0
1001
ACAD
1000
AcadProxyRoundTripData
1071
      521
1071
   393239
1070
     0
  0
ACAD_PROXY_OBJECT
  5
F8
330
0
100
AcDbProxyObject
 90
      499
 91
      725
 93
      172
310
000101425053541192551311538000000FC83D797418
330
7E
 94
        0
1001
ACAD
1000
AcadProxyRoundTripData
1071
      521
1071
   393239
1070
     0
  0
ACAD_PROXY_OBJECT
  5
F9
330
0
100
AcDbProxyObject
 90
      499
 91
      725
 93
      156
310
00010141D053559150D4D180000000000002840D
330
7E
 94
        0
1001
ACAD
1000
AcadProxyRoundTripData
1071
      521
1071
   393239
1070
     0
  0
ACAD_PROXY_OBJECT
  5
FA
330
0
100
AcDbProxyObject
 90
      499
 91
      725
 93
      156
310
00010141D05354D19513D309A9999999999993FE
330
7E
 94
        0
1001
ACAD
1000
AcadProxyRoundTripData
1071
      521
1071
   393239
1070
     0
  0
ACAD_PROXY_OBJECT
  5
FB
330
0
100
AcDbProxyObject
 90
      499
 91
      725
 93
      172
310
000101425053541192551513D30000000000000D03F2
330
7E
 94
        0
1001
ACAD
1000
AcadProxyRoundTripData
1071
      521
1071
   393239
1070
     0
  0
ACAD_PROXY_OBJECT
  5
FC
330
0
100
AcDbProxyObject
 90
      499
 91
      725
 93
      188
310
00010142D05354D151D192551513D307B14AE47E17A843FC
330
7E
 94
        0
1001
ACAD
1000
AcadProxyRoundTripData
1071
      521
1071
   393239
1070
     0
  0
ACAD_PROXY_OBJECT
  5
FD
330
0
100
AcDbProxyObject
 90
      499
 91
      725
 93
      148
310
000101419053541311538000000FC83D797410
330
7E
 94
        0
1001
ACAD
1000
AcadProxyRoundTripData
1071
      521
1071
   393239
1070
     0
  0
ACAD_PROXY_OBJECT
  5
FE
330
0
100
AcDbProxyObject
 90
      499
 91
      725
 93
      172
310
00010142505354105391D513D301C052DC9A6F104407
330
7E
 94
        0
1001
ACAD
1000
AcadProxyRoundTripData
1071
      521
1071
   393239
1070
     0
  0
ACAD_PROXY_OBJECT
  5
FF
330
0
100
AcDbProxyObject
 90
      499
 91
      725
 93
      132
310
0001014114D25691400000000000024400
330
7E
 94
        0
1001
ACAD
1000
AcadProxyRoundTripData
1071
      521
1071
   393239
1070
     0
  0
ACAD_PROXY_OBJECT
  5
100
330
0
100
AcDbProxyObject
 90
      499
 91
      725
 93
      156
310
00010142905351D4941491519256005034153473
330
7E
 94
        0
1001
ACAD
1000
AcadProxyRoundTripData
1071
      522
1071
   393239
1070
     0
  0
ACAD_PROXY_OBJECT
  5
101
330
0
100
AcDbProxyObject
 90
      499
 91
      725
 93
      314
310
00014080509646973745363616C650000000000003C2FC000000000000F0BF0000003F20F5E5D049
330
7E
 94
        0
1001
ACAD
1000
AcadProxyRoundTripData
1071
      545
1071
   393239
1070
     0
  0
ACAD_PROXY_OBJECT
  5
102
330
0
100
AcDbProxyObject
 90
      499
 91
      725
 93
      322
310
0001408050A65646175526F74617465060B51153EC87E4FC182D4454FB2119C0060B51153EC8465028
330
7E
 94
        0
1001
ACAD
1000
AcadProxyRoundTripData
1071
      545
1071
   393239
1070
     0
  0
ACAD_PROXY_OBJECT
  5
103
330
0
100
AcDbProxyObject
 90
      499
 91
      725
 93
      314
310
00014080509656461755477697374060B51153EC846500000000FC83D797C10000003F20F5E5D049
330
7E
 94
        0
1001
ACAD
1000
AcadProxyRoundTripData
1071
      545
1071
   393239
1070
     0
  0
ACAD_PROXY_OBJECT
  5
104
330
0
100
AcDbProxyObject
 90
      499
 91
      725
 93
      286
310
000140C050A656467654F75747075740144941BDB1E5B1A5B994817D41BDB1E5B1A5B997
330
7E
 94
        0
1001
ACAD
1000
AcadProxyRoundTripData
1071
      546
1071
   393239
1070
     0
  0
ACAD_PROXY_OBJECT
  5
105
330
0
100
AcDbProxyObject
 90
      499
 91
      725
 93
      154
310
0001404050B65646974507265766965774064040
330
7E
 94
        0
1001
ACAD
1000
AcadProxyRoundTripData
1071
      547
1071
   393239
1070
     0
  0
ACAD_PROXY_OBJECT
  5
106
330
0
100
AcDbProxyObject
 90
      499
 91
      725
 93
      170
310
0001404050A666C6F77556C696E657342A3A00C00003
330
7E
 94
        0
1001
ACAD
1000
AcadProxyRoundTripData
1071
      547
1071
   393239
1070
     0
  0
ACAD_PROXY_OBJECT
  5
107
330
0
100
AcDbProxyObject
 90
      499
 91
      725
 93
      170
310
0001404050A666C6F77566C696E657342A3A00C00030
330
7E
 94
        0
1001
ACAD
1000
AcadProxyRoundTripData
1071
      547
1071
   393239
1070
     0
  0
ACAD_PROXY_OBJECT
  5
108
330
0
100
AcDbProxyObject
 90
      499
 91
      725
 93
      322
310
0001408050A666C7366456E645261640000000000003C2FC000000000000F0BF0000003F20F5E5D068
330
7E
 94
        0
1001
ACAD
1000
AcadProxyRoundTripData
1071
      545
1071
   393239
1070
     0
  0
ACAD_PROXY_OBJECT
  5
109
330
0
100
AcDbProxyObject
 90
      499
 91
      725
 93
      238
310
000140C05086A6E33644D6F6465014393585B9D585B0817D3585B9D585B3
330
7E
 94
        0
1001
ACAD
1000
AcadProxyRoundTripData
1071
      546
1071
   393239
1070
     0
  0
ACAD_PROXY_OBJECT
  5
10A
330
0
100
AcDbProxyObject
 90
      499
 91
      725
 93
      286
310
000140C050A6A6E33644F75747075740144941BDB1E5B1A5B994817D41BDB1E5B1A5B994
330
7E
 94
        0
1001
ACAD
1000
AcadProxyRoundTripData
1071
      546
1071
   393239
1070
     0
  0
ACAD_PROXY_OBJECT
  5
10B
330
0
100
AcDbProxyObject
 90
      499
 91
      725
 93
      306
310
000140805086C656E675065726300000000002016D002D431CEBE2361A3F0000003F20F5E5D055
330
7E
 94
        0
1001
ACAD
1000
AcadProxyRoundTripData
1071
      545
1071
   393239
1070
     0
  0
ACAD_PROXY_OBJECT
  5
10C
330
0
100
AcDbProxyObject
 90
      499
 91
      725
 93
      266
310
0001408050B6D61737344656E7369747942D431CEBE2361A3F0000003F20F5E5D066
330
7E
 94
        0
1001
ACAD
1000
AcadProxyRoundTripData
1071
      545
1071
   393239
1070
     0
  0
ACAD_PROXY_OBJECT
  5
10D
330
0
100
AcDbProxyObject
 90
      499
 91
      725
 93
      186
310
000140805096D617373546869636BA0000003F20F5E5D055
330
7E
 94
        0
1001
ACAD
1000
AcadProxyRoundTripData
1071
      545
1071
   393239
1070
     0
  0
ACAD_PROXY_OBJECT
  5
10E
330
0
100
AcDbProxyObject
 90
      499
 91
      725
 93
      222
310
000140C05086D61737354797065014314DA195B1B0817D4DA195B1B0
330
7E
 94
        0
1001
ACAD
1000
AcadProxyRoundTripData
1071
      546
1071
   393239
1070
     0
  0
ACAD_PROXY_OBJECT
  5
10F
330
0
100
AcDbProxyObject
 90
      499
 91
      725
 93
      334
310
000140C05096D6F646F556E6974730146535A5B1B1A5B595D195C9CC817D35A5B1B1A5B595D195C9CC80
330
7E
 94
        0
1001
ACAD
1000
AcadProxyRoundTripData
1071
      546
1071
   393239
1070
     0
  0
ACAD_PROXY_OBJECT
  5
110
330
0
100
AcDbProxyObject
 90
      499
 91
      725
 93
      266
310
0001408050B6D6F646F506572556E697442D431CEBE2361A3F0000003F20F5E5D066
330
7E
 94
        0
1001
ACAD
1000
AcadProxyRoundTripData
1071
      545
1071
   393239
1070
     0
  0
ACAD_PROXY_OBJECT
  5
111
330
0
100
AcDbProxyObject
 90
      499
 91
      725
 93
      242
310
000140805086F667366446973744000000FC83D797C10000003F20F5E5D065
330
7E
 94
        0
1001
ACAD
1000
AcadProxyRoundTripData
1071
      545
1071
   393239
1070
     0
  0
ACAD_PROXY_OBJECT
  5
112
330
0
100
AcDbProxyObject
 90
      499
 91
      725
 93
      258
310
0001408050A7072696D52616469757342D431CEBE2361A3F0000003F20F5E5D050
330
7E
 94
        0
1001
ACAD
1000
AcadProxyRoundTripData
1071
      545
1071
   393239
1070
     0
  0
ACAD_PROXY_OBJECT
  5
113
330
0
100
AcDbProxyObject
 90
      499
 91
      725
 93
      194
310
0001408050A7072696D546F70526164A0000003F20F5E5D040
330
7E
 94
        0
1001
ACAD
1000
AcadProxyRoundTripData
1071
      545
1071
   393239
1070
     0
  0
ACAD_PROXY_OBJECT
  5
114
330
0
100
AcDbProxyObject
 90
      499
 91
      725
 93
      266
310
0001408050B7072696D5475626552616442D431CEBE2361A3F0000003F20F5E5D066
330
7E
 94
        0
1001
ACAD
1000
AcadProxyRoundTripData
1071
      545
1071
   393239
1070
     0
  0
ACAD_PROXY_OBJECT
  5
115
330
0
100
AcDbProxyObject
 90
      499
 91
      725
 93
      258
310
0001408050A7072696D4865696768744000000FC83D797C10000003F20F5E5D046
330
7E
 94
        0
1001
ACAD
1000
AcadProxyRoundTripData
1071
      545
1071
   393239
1070
     0
  0
ACAD_PROXY_OBJECT
  5
116
330
0
100
AcDbProxyObject
 90
      499
 91
      725
 93
      250
310
000140805097072696D5374416E678182D4454FB2119C0060B51153EC8465006
330
7E
 94
        0
1001
ACAD
1000
AcadProxyRoundTripData
1071
      545
1071
   393239
1070
     0
  0
ACAD_PROXY_OBJECT
  5
117
330
0
100
AcDbProxyObject
 90
      499
 91
      725
 93
      322
310
0001408050A7072696D456E64416E67060B51153EC846500182D4454FB2119C0060B51153EC8465030
330
7E
 94
        0
1001
ACAD
1000
AcadProxyRoundTripData
1071
      545
1071
   393239
1070
     0
  0
ACAD_PROXY_OBJECT
  5
118
330
0
100
AcDbProxyObject
 90
      499
 91
      725
 93
      242
310
000140805087265765374416E678182D4454FB2119C0060B51153EC8465002
330
7E
 94
        0
1001
ACAD
1000
AcadProxyRoundTripData
1071
      545
1071
   393239
1070
     0
  0
ACAD_PROXY_OBJECT
  5
119
330
0
100
AcDbProxyObject
 90
      499
 91
      725
 93
      314
310
00014080509726576456E64416E67060B51153EC846500182D4454FB2119C0060B51153EC846500A
330
7E
 94
        0
1001
ACAD
1000
AcadProxyRoundTripData
1071
      545
1071
   393239
1070
     0
  0
ACAD_PROXY_OBJECT
  5
11A
330
0
100
AcDbProxyObject
 90
      499
 91
      725
 93
      194
310
0001404050C7266736655706174636865734290139C0C00035
330
7E
 94
        0
1001
ACAD
1000
AcadProxyRoundTripData
1071
      547
1071
   393239
1070
     0
  0
ACAD_PROXY_OBJECT
  5
11B
330
0
100
AcDbProxyObject
 90
      499
 91
      725
 93
      194
310
0001404050C7266736656706174636865734290139C0C0001A
330
7E
 94
        0
1001
ACAD
1000
AcadProxyRoundTripData
1071
      547
1071
   393239
1070
     0
  0
ACAD_PROXY_OBJECT
  5
11C
330
0
100
AcDbProxyObject
 90
      499
 91
      725
 93
      238
310
000140C0508747562654D6F6465014393585B9D585B0817D3585B9D585B0
330
7E
 94
        0
1001
ACAD
1000
AcadProxyRoundTripData
1071
      546
1071
   393239
1070
     0
  0
ACAD_PROXY_OBJECT
  5
11D
330
0
100
AcDbProxyObject
 90
      499
 91
      725
 93
      274
310
0001408050C747562654469616D6574657242D431CEBE2361A3F0000003F20F5E5D041
330
7E
 94
        0
1001
ACAD
1000
AcadProxyRoundTripData
1071
      545
1071
   393239
1070
     0
  0
ACAD_PROXY_OBJECT
  5
11E
330
0
100
AcDbProxyObject
 90
      499
 91
      725
 93
      130
310
00014040509696E746572506F6C79A4050
330
7E
 94
        0
1001
ACAD
1000
AcadProxyRoundTripData
1071
      547
1071
   393239
1070
     0
  0
ACAD_PROXY_OBJECT
  5
11F
330
0
100
AcDbProxyObject
 90
      499
 91
      725
 93
      146
310
0001404050A70726F6A4F757470757440A40BE
330
7E
 94
        0
1001
ACAD
1000
AcadProxyRoundTripData
1071
      547
1071
   393239
1070
     0
  0
ACAD_PROXY_OBJECT
  5
145
330
0
100
AcDbProxyObject
 90
      499
 91
      725
 93
      116
310
00010142505351D153D35054D4D010
330
7E
 94
        0
1001
ACAD
1000
AcadProxyRoundTripData
1071
      520
1071
   393239
1070
     0
  0
ACAD_PROXY_OBJECT
  5
146
330
0
100
AcDbProxyObject
 90
      499
 91
      725
 93
      140
310
00010142105350D55494D5110050349534FA
330
7E
 94
        0
1001
ACAD
1000
AcadProxyRoundTripData
1071
      522
1071
   393239
1070
     0
  0
ACAD_PROXY_OBJECT
  5
181
330
0
100
AcDbProxyObject
 90
      499
 91
      725
 93
      156
310
00010143D050D351505391D5531054925390D495
330
7E
 94
        0
1001
ACAD
1000
AcadProxyRoundTripData
1071
      521
1071
   393239
1070
     0
  0
ACAD_PROXY_OBJECT
  5
182
330
0
100
AcDbProxyObject
 90
      499
 91
      725
 93
      148
310
000101439050D351531253915054925390D490
330
7E
 94
        0
1001
ACAD
1000
AcadProxyRoundTripData
1071
      521
1071
   393239
1070
     0
  0
ACAD_PROXY_OBJECT
  5
183
330
0
100
AcDbProxyObject
 90
      499
 91
      725
 93
      156
310
000101439050D35154D6535093D314D256915085
330
7E
 94
        0
1001
ACAD
1000
AcadProxyRoundTripData
1071
      520
1071
   393239
1070
     0
  0
ACAD_PROXY_OBJECT
  5
191
330
0
100
AcDbProxyObject
 90
      499
 91
      725
 93
      220
310
0001014350535513D3D31093D11654119600508544F4F4C424F44590
330
7E
 94
        0
1001
ACAD
1000
AcadProxyRoundTripData
1071
      522
1071
   393239
1070
     0
  0
ACAD_PROXY_OBJECT
  5
192
330
0
100
AcDbProxyObject
 90
      499
 91
      725
 93
      140
310
00010143105354D554141490D3D313D49060
330
7E
 94
        0
1001
ACAD
1000
AcadProxyRoundTripData
1071
      520
1071
   393239
1070
     0
  0
ACAD_PROXY_OBJECT
  5
195
330
0
100
AcDbProxyObject
 90
      499
 91
      725
 93
      148
310
00010143505350555513D4D0D39313D0D2D011
330
7E
 94
        0
1001
ACAD
1000
AcadProxyRoundTripData
1071
      520
1071
   393239
1070
     0
  0
ACAD_PROXY_OBJECT
  5
197
330
0
100
AcDbProxyObject
 90
      499
 91
      725
 93
      108
310
00010142105350555513D0D31013
330
7E
 94
        0
1001
ACAD
1000
AcadProxyRoundTripData
1071
      520
1071
   393239
1070
     0
  0
ACAD_PROXY_OBJECT
  5
198
330
0
100
AcDbProxyObject
 90
      499
 91
      725
 93
      108
310
00010142105350D3119150551053
330
7E
 94
        0
1001
ACAD
1000
AcadProxyRoundTripData
1071
      520
1071
   393239
1070
     0
  0
ACAD_PROXY_OBJECT
  5
199
330
0
100
AcDbProxyObject
 90
      499
 91
      725
 93
      108
310
00010142105350D315925155D3F3
330
7E
 94
        0
1001
ACAD
1000
AcadProxyRoundTripData
1071
      520
1071
   393239
1070
     0
  0
ACAD_PROXY_OBJECT
  5
19A
330
0
100
AcDbProxyObject
 90
      499
 91
      725
 93
      148
310
0001014350535212511156915493D112535011
330
7E
 94
        0
1001
ACAD
1000
AcadProxyRoundTripData
1071
      520
1071
   393239
1070
     0
  0
ACAD_PROXY_OBJECT
  5
19B
330
0
100
AcDbProxyObject
 90
      499
 91
      725
 93
      124
310
00010142D05351561514915191125364
330
7E
 94
        0
1001
ACAD
1000
AcadProxyRoundTripData
1071
      520
1071
   393239
1070
     0
  0
ACAD_PROXY_OBJECT
  5
19C
330
0
100
AcDbProxyObject
 90
      499
 91
      725
 93
      172
310
00010144105350555513D11253505494905391D15010
330
7E
 94
        0
1001
ACAD
1000
AcadProxyRoundTripData
1071
      520
1071
   393239
1070
     0
  0
ACAD_PROXY_OBJECT
  5
19D
330
0
100
AcDbProxyObject
 90
      499
 91
      725
 93
      132
310
00010142D05355105410539393D5115010
330
7E
 94
        0
1001
ACAD
1000
AcadProxyRoundTripData
1071
      520
1071
   393239
1070
     0
  0
ACAD_PROXY_OBJECT
  5
19E
330
0
100
AcDbProxyObject
 90
      499
 91
      725
 93
      116
310
00010142905352105510D21254D3E5
330
7E
 94
        0
1001
ACAD
1000
AcadProxyRoundTripData
1071
      520
1071
   393239
1070
     0
  0
ACAD_PROXY_OBJECT
  5
19F
330
0
100
AcDbProxyObject
 90
      499
 91
      725
 93
      148
310
00010143905354D25391D31152105513105665
330
7E
 94
        0
1001
ACAD
1000
AcadProxyRoundTripData
1071
      520
1071
   393239
1070
     0
  0
ACAD_PROXY_OBJECT
  5
1E0
330
0
100
AcDbProxyObject
 90
      499
 91
      725
 93
      314
310
00014080509626C656E644261636B0000000000000D1002D431CEBE2361A3F000000000000165004
330
7E
 94
        0
1001
ACAD
1000
AcadProxyRoundTripData
1071
      545
1071
   393239
1070
     0
  0
ACAD_PROXY_OBJECT
  5
1E4
330
0
100
AcDbProxyObject
 90
      499
 91
      725
 93
      108
310
00010142105350D3D39114D41012
330
7E
 94
        0
1001
ACAD
1000
AcadProxyRoundTripData
1071
      520
1071
   393239
1070
     0
  0
ACAD_PROXY_OBJECT
  5
1E6
330
0
100
AcDbProxyObject
 90
      499
 91
      725
 93
      148
310
00010143505350555513D313D0D2D4D0D39015
330
7E
 94
        0
1001
ACAD
1000
AcadProxyRoundTripData
1071
      520
1071
   393239
1070
     0
  0
ACAD_PROXY_OBJECT
  5
65A
330
0
100
AcDbProxyObject
 90
      499
 91
      725
 93
       34
310
0001802A80
330
7E
 94
        0
1001
ACAD
1000
AcadProxyRoundTripData
1071
      664
1071
   393239
1070
     0
  0
ACAD_PROXY_OBJECT
  5
A27
330
0
100
AcDbProxyObject
 90
      499
 91
      725
 93
      219
310
0001C333333333333032000000000000002080333333333333032020
330
7E
 94
        0
1001
ACAD
1000
AcadProxyRoundTripData
1071
      679
1071
   393239
1070
     0
  0
ACAD_PROXY_OBJECT
  5
1068
330
0
100
AcDbProxyObject
 90
      499
 91
      725
 93
      227
310
0001A0A333333333333032000000000000002080333333333333032020
330
7E
 94
        0
1001
ACAD
1000
AcadProxyRoundTripData
1071
      679
1071
   393239
1070
     0
  0
ACAD_PROXY_OBJECT
  5
1492
330
0
100
AcDbProxyObject
 90
      499
 91
      725
 93
      291
310
0001A0A33333333333303200000000000000208033333333333303200000000000001E17ED
330
7E
 94
        0
1001
ACAD
1000
AcadProxyRoundTripData
1071
      679
1071
   393239
1070
     0
  0
ACAD_PROXY_OBJECT
  5
180F
330
0
100
AcDbProxyObject
 90
      499
 91
      725
 93
       32
310
0001000000
330
7E
340
180C
330
0
330
180C
 94
        0
1001
ACAD
1000
AcadProxyRoundTripData
1071
      535
1071
   393239
1070
     0
  0
ACAD_PROXY_OBJECT
  5
1813
330
0
100
AcDbProxyObject
 90
      499
 91
      725
 93
       32
310
0001000049
330
7E
340
1810
330
E3
330
1810
 94
        0
1001
ACAD
1000
AcadProxyRoundTripData
1071
      535
1071
   393239
1070
     0
  0
ACAD_PROXY_OBJECT
  5
1814
330
0
100
AcDbProxyObject
 90
      499
 91
      725
 93
       32
310
0001000080
330
7E
330
1813
330
0
 94
        0
1001
ACAD
1000
AcadProxyRoundTripData
1071
      717
1071
   393239
1070
     0
  0
ACAD_PROXY_OBJECT
  5
1815
330
0
100
AcDbProxyObject
 90
      499
 91
      725
 93
      104
310
0001014194D0D153914C402A0000
330
7E
330
0
330
1819
 94
        0
1001
ACAD
1000
AcadProxyRoundTripData
1071
      511
1071
   393239
1070
     0
  0
ACAD_PROXY_OBJECT
  5
1816
330
0
100
AcDbProxyObject
 90
      499
 91
      725
 93
       24
310
00010000
330
7E
330
1819
 94
        0
1001
ACAD
1000
AcadProxyRoundTripData
1071
      718
1071
   393239
1070
     0
  0
ACAD_PROXY_OBJECT
  5
1819
330
0
100
AcDbProxyObject
 90
      499
 91
      725
 93
       72
310
00010000A8000200AA65
330
7E
330
E3
330
1817
330
1818
330
1813
330
1815
 94
        0
1001
ACAD
1000
AcadProxyRoundTripData
1071
      719
1071
   393239
1070
     0
  0
ACAD_PROXY_OBJECT
  5
181B
330
0
100
AcDbProxyObject
 90
      499
 91
      725
 93
     1084
310
0001000040412BE767F8889744031DF7B77DDA09BD000000000000003540AAAAAA12473E6D08172EAFC7120E8EC149EEE3F0A7B9450C1D9F46FC4C00714FF5A0A1C014221CEEB523CAB0073CB0D48043E89402D88E8715B4E64D00B623A1C56D39934000000000000012502A363D42DA0F6A61D004421AA008A1D6F4000000
310
00000000D501A9806B
330
7E
330
E5
330
1819
 94
        0
1001
ACAD
1000
AcadProxyRoundTripData
1071
      720
1071
   393239
1070
     0
  0
ACAD_PROXY_OBJECT
  5
1829
330
0
100
AcDbProxyObject
 90
      499
 91
      725
 93
      283
310
0001C33333333333303200000000000000208033333333333303201353333333333927E7
330
7E
 94
        0
1001
ACAD
1000
AcadProxyRoundTripData
1071
      679
1071
   393239
1070
     0
  0
ACAD_PROXY_OBJECT
  5
1A86
330
0
100
AcDbProxyObject
 90
      499
 91
      725
 93
      291
310
0001A0A33333333333303200000000000000208033333333333303201353333333333927E0
330
7E
 94
        0
1001
ACAD
1000
AcadProxyRoundTripData
1071
      679
1071
   393239
1070
     0
  0
DICTIONARY
  5
172
102
{ACAD_REACTORS
330
171
102
}
330
171
100
AcDbDictionary
  3
DWGSETTINGS
350
173
  3
TRANSSETTINGS
350
17D
  0
ACAD_PROXY_OBJECT
  5
174
102
{ACAD_REACTORS
330
171
102
}
330
171
100
AcDbProxyObject
 90
      499
 91
      725
 93
    16300
310
40902491013041105357CC1074CA404C504414D5F31439329013241105357CC9054CA404CD04414D5F33419199013441105357CD103466404D504414D5F3540D199013641105357CD90248E404DD04414D5F37411199013841105357CE101466404E504414D5F397F641102324141505357CC4C107466408D10505414D5F31
310
3140D19902495041505357CC4C907466408C13905414D5F304E41D32902314E41505357CC5390E4CA408C93905414D5F324E41532902334E41505357CCD3906466408D13905414D5F344E40D19902354E41505357CD53903466408D93905414D5F364E40923902374E41505357CDD3904466408E13905414D5F384E4051990
310
2394E41505357CE539FD90440CC9053906414D5F31304E41D1990334414E41905357CC4C5390346640D25413906414D5F31324E41D199044B4C494E41505357D0D3101465094112539193D08414D5F504152454641119425055241484D3541905357D093D49074C9094115925155D08414D5F56494557534051942D0642454
310
8494E4441905357D253959FD90D415514905253105414D5F545240D1990348494441905357D2125110746640D59254D06414D5F56495341D3290650415244494D42505357D410549112535034650141949151911253509414D5F52454644494D411194057641105315149013441D32411091531250134CFFFFFFFF41109213
310
9590139CFFFFFFFF415092139594D06424548494E44CFFFFFFFF41109312511023441CFFFFFFFF411093D0541023441CFFFFFFFF411093D48C9055241484D3540519411093D48CD055241484D3540923411093D48D5055241484D35CFFFFFFFF411093D48DD055241484D3541D3241109410541023441CFFFFFFFF41109411
310
561023441CFFFFFFFF411095111250135CFFFFFFFF4110D0530C90134CFFFFFFFF4110D0530CD0134409234110D0530D5013441D324110D0530DD0134415324110D1539390137CFFFFFFFF4110D15395D0137CFFFFFFFF4110D312539044B4C494ECFFFFFFFF4110D3D38C50130CFFFFFFFF4110D3D38C90131CFFFFFFFF41
310
10D3D38CD0132CFFFFFFFF4110D3D38D10132CFFFFFFFF411111549410134CFFFFFFFF411111551050134CFFFFFFFF4111125051D0135CFFFFFFFF411112531250135CFFFFFFFF411112535410650415244494DCFFFFFFFF411112535490652454644494DCFFFFFFFF41115613541023441CFFFFFFFF411191535390138CFF
310
FFFFFF4151915354139013840CFFFFFFFF4151915354D41023441CFFFFFFFF4151915354D5102344140D1941519153559390132CFFFFFFFF4151915355951013240D19411193105510130CFFFFFFFF41119490549023441CFFFFFFFF4111D4931250135CFFFFFFFF4111D593125023441CFFFFFFFF4112105510D0138CFFFF
310
FFFF411212511390133CFFFFFFFF4112125115D0133CFFFFFFFF411213125390134CFFFFFFFF411213D0D390137CFFFFFFFF411213D0D5D0137CFFFFFFFF4112539193D04494E464FCFFFFFFFF411310511250134CFFFFFFFF411311505110135CFFFFFFFF419397D0921395902394ECFFFFFFFF419397D0D3D38C502304EC
310
FFFFFFFF419397D0D3D38C902314ECFFFFFFFF419397D0D3D38CD02324ECFFFFFFFF419397D0D3D38D102324ECFFFFFFFF419397D0D15393902374ECFFFFFFFF419397D0D15395D02374ECFFFFFFFF419397D1125312502354ECFFFFFFFF419397D2105510D02384ECFFFFFFFF419397D2125113902334ECFFFFFFFF419397
310
D2125115D02334ECFFFFFFFF419397D3115051102354ECFFFFFFFF419397D391D25410349504ECFFFFFFFF419397D412105390334414ECFFFFFFFF419397D510D3D3902304ECFFFFFFFF419397D5121312502344ECFFFFFFFF419397D5131153902304ECFFFFFFFF419397D516150CD02364ECFFFFFFFF419397D594131250
310
332414ECFFFFFFFF411391D2541024950CFFFFFFFF411410530C9055241484D3540519411410530CD055241484D3540923411410530D5055241484D35CFFFFFFFF411410530DD055241484D3541D3241141210539023441CFFFFFFFF411413D4D39013641D32419413D4D491519013641532411413D4D610136CFFFFFFFF41
310
1414D150D023441CFFFFFFFF411490D1D390137CFFFFFFFF411490D1D5D0137CFFFFFFFF411491911250134CFFFFFFFF41149455149013441D32411494D093D0134CFFFFFFFF4114D09492D013441CFFFFFFFF4114D0D15390137CFFFFFFFF4114D150D510134CFFFFFFFF4114D1531390137CFFFFFFFF4114D15315D0137C
310
FFFFFFFF4114D4D654D0130CFFFFFFFF4114D513125013441D324114D6508C50135CFFFFFFFF4114D6508C90135CFFFFFFFF4114D6508CD0135409234114D6508D5013541D324114D6535390137CFFFFFFFF4114D65355D0137CFFFFFFFF411510D3D390130CFFFFFFFF411512131250134CFFFFFFFF411512550C90552414
310
84D3540519411512550CD055241484D3540923411512550D5055241484D35CFFFFFFFF411512550DD055241484D3541D32411513115390130CFFFFFFFF415514905253105545241494CCFFFFFFFF41151492D390137CFFFFFFFF41151492D5D0137CFFFFFFFF411514931250134CFFFFFFFF411516150C5013640D19411516
310
150C9013640D19411516150CD0136CFFFFFFFF411516150D5013641D32411516150DD013641D324115925155D0456494557CFFFFFFFF4115915112103484944CFFFFFFFF4115915115903564953CFFFFFFFF41159413125023241CFFFFFFFF411692569050134CFFFFFFFFAA7F6909405194092340D1941119415324191941
310
D32439327F66
340
16
340
16
340
16
340
175
340
16
340
16
340
16
340
176
340
16
340
16
340
176
340
177
340
16
340
16
340
16
340
16
340
175
340
16
340
16
340
16
340
176
340
16
340
16
340
176
340
177
340
16
340
16
340
16
340
16
340
16
340
16
340
16
340
175
340
16
340
16
340
16
340
178
340
15
340
15
340
15
340
15
340
15
340
15
340
15
340
15
340
15
340
15
340
15
340
15
340
15
340
15
340
15
340
15
340
179
340
15
340
15
340
15
340
15
340
15
340
15
340
15
340
15
340
15
340
15
340
15
340
15
340
15
340
15
340
15
340
16
340
15
340
15
340
15
340
15
340
15
340
15
340
15
340
15
340
178
340
15
340
15
340
179
340
15
340
15
340
15
340
15
340
15
340
15
340
15
340
15
340
15
340
179
340
15
340
15
340
15
340
178
340
15
340
15
340
15
340
15
340
15
340
15
340
15
340
15
340
15
340
15
340
15
340
15
340
15
340
15
340
15
340
15
340
15
340
15
340
15
340
179
340
15
340
15
340
179
340
15
340
15
340
16
340
15
340
179
340
15
340
15
340
178
340
15
340
15
340
16
340
15
340
179
340
15
340
15
340
15
340
15
340
15
340
15
340
15
340
15
340
15
340
179
340
15
340
15
340
15
340
15
340
15
340
15
340
15
340
15
340
15
340
15
340
15
340
17C
 94
        0
1001
ACAD
1000
AcadProxyRoundTripData
1071
      562
1071
   393239
1070
     0
  0
ACAD_PROXY_OBJECT
  5
1F6
102
{ACAD_REACTORS
330
1F2
102
}
330
1F2
100
AcDbProxyObject
 90
      499
 91
      725
 93
      253
310
43D1444494D454E53494F4E2C414D44545F2A5F44494D404A9012A404A9012A8
 94
        0
1001
ACAD
1000
AcadProxyRoundTripData
1071
      608
1071
   393239
1070
     0
  0
ACAD_PROXY_OBJECT
  5
1F5
102
{ACAD_REACTORS
330
1F2
102
}
330
1F2
100
AcDbProxyObject
 90
      499
 91
      725
 93
      181
310
43D012A42D05357D191504B505357CA9012A404A9012AC
 94
        0
1001
ACAD
1000
AcadProxyRoundTripData
1071
      608
1071
   393239
1070
     0
  0
ACAD_PROXY_OBJECT
  5
1F3
102
{ACAD_REACTORS
330
1F2
102
}
330
1F2
100
AcDbProxyObject
 90
      499
 91
      725
 93
      133
310
43D054841544348404A9012A404A9012AC
 94
        0
1001
ACAD
1000
AcadProxyRoundTripData
1071
      608
1071
   393239
1070
     0
  0
ACAD_PROXY_OBJECT
  5
1F4
102
{ACAD_REACTORS
330
1F2
102
}
330
1F2
100
AcDbProxyObject
 90
      499
 91
      725
 93
      813
310
43D5A41434D46434652414D452C41434D444154554D5441524745542C41434D444154554D49442C41434D57454C4453594D2C41434D5355524653594D2C41434D4645415449442C41434D504152545245462C41434D42414C4C4F4F4E404A9012A404A9012A8
 94
        0
1001
ACAD
1000
AcadProxyRoundTripData
1071
      608
1071
   393239
1070
     0
  0
XRECORD
  5
21A4
102
{ACAD_REACTORS
330
21A3
102
}
330
21A3
100
AcDbXrecord
 90
        1
  0
XRECORD
  5
21A5
102
{ACAD_REACTORS
330
21A3
102
}
330
21A3
100
AcDbXrecord
 90
       70
  0
XRECORD
  5
21A6
102
{ACAD_REACTORS
330
21A3
102
}
330
21A3
100
AcDbXrecord
  1

  0
XRECORD
  5
21A7
102
{ACAD_REACTORS
330
21A3
102
}
330
21A3
100
AcDbXrecord
  1

  0
XRECORD
  5
21A8
102
{ACAD_REACTORS
330
21A3
102
}
330
21A3
100
AcDbXrecord
340
167
  0
XRECORD
  5
21A9
102
{ACAD_REACTORS
330
21A3
102
}
330
21A3
100
AcDbXrecord
340
168
  0
XRECORD
  5
21AA
102
{ACAD_REACTORS
330
21A3
102
}
330
21A3
100
AcDbXrecord
340
165
  0
XRECORD
  5
21AB
102
{ACAD_REACTORS
330
21A3
102
}
330
21A3
100
AcDbXrecord
 90
    10781
  0
XRECORD
  5
21AC
102
{ACAD_REACTORS
330
21A3
102
}
330
21A3
100
AcDbXrecord
 90
        0
  0
XRECORD
  5
21AD
102
{ACAD_REACTORS
330
21A3
102
}
330
21A3
100
AcDbXrecord
 90
        0
  0
XRECORD
  5
21AE
102
{ACAD_REACTORS
330
21A3
102
}
330
21A3
100
AcDbXrecord
  1
{9DE0F4BE-022B-11D3-8698-0060B085A428}
  0
XRECORD
  5
21AF
102
{ACAD_REACTORS
330
21A3
102
}
330
21A3
100
AcDbXrecord
  1
{902FBB66-D273-11D4-A565-0020AF8FBE64}
  0
XRECORD
  5
21B0
102
{ACAD_REACTORS
330
21A3
102
}
330
21A3
100
AcDbXrecord
 40
0.0
  0
XRECORD
  5
21B1
102
{ACAD_REACTORS
330
21A3
102
}
330
21A3
100
AcDbXrecord
1000
DSTYLE
1002
{
1070
   277
 70
     6
1002
}
  0
XRECORD
  5
21B2
102
{ACAD_REACTORS
330
21A3
102
}
330
21A3
100
AcDbXrecord
340
0
  0
XRECORD
  5
21B3
102
{ACAD_REACTORS
330
21A3
102
}
330
21A3
100
AcDbXrecord
 70
     0
  0
XRECORD
  5
21B4
102
{ACAD_REACTORS
330
21A3
102
}
330
21A3
100
AcDbXrecord
340
0
  0
XRECORD
  5
21B5
102
{ACAD_REACTORS
330
21A3
102
}
330
21A3
100
AcDbXrecord
 10
0.0
 20
0.0
 30
0.0
  0
XRECORD
  5
21B6
102
{ACAD_REACTORS
330
21A3
102
}
330
21A3
100
AcDbXrecord
 10
0.0
 20
0.0
 30
0.0
  0
XRECORD
  5
21B7
102
{ACAD_REACTORS
330
21A3
102
}
330
21A3
100
AcDbXrecord
 10
0.0
 20
0.0
 30
0.0
  0
XRECORD
  5
21B8
102
{ACAD_REACTORS
330
21A3
102
}
330
21A3
100
AcDbXrecord
 10
0.0
 20
0.0
 30
0.0
  0
XRECORD
  5
21B9
102
{ACAD_REACTORS
330
21A3
102
}
330
21A3
100
AcDbXrecord
 10
0.0
 20
0.0
 30
0.0
  0
XRECORD
  5
21BA
102
{ACAD_REACTORS
330
21A3
102
}
330
21A3
100
AcDbXrecord
 10
0.0
 20
0.0
 30
0.0
  0
XRECORD
  5
21BB
102
{ACAD_REACTORS
330
21A3
102
}
330
21A3
100
AcDbXrecord
340
0
  0
XRECORD
  5
21BC
102
{ACAD_REACTORS
330
21A3
102
}
330
21A3
100
AcDbXrecord
 70
     0
  0
XRECORD
  5
21BD
102
{ACAD_REACTORS
330
21A3
102
}
330
21A3
100
AcDbXrecord
340
0
  0
XRECORD
  5
21BE
102
{ACAD_REACTORS
330
21A3
102
}
330
21A3
100
AcDbXrecord
 10
0.0
 20
0.0
 30
0.0
  0
XRECORD
  5
21BF
102
{ACAD_REACTORS
330
21A3
102
}
330
21A3
100
AcDbXrecord
 10
0.0
 20
0.0
 30
0.0
  0
XRECORD
  5
21C0
102
{ACAD_REACTORS
330
21A3
102
}
330
21A3
100
AcDbXrecord
 10
0.0
 20
0.0
 30
0.0
  0
XRECORD
  5
21C1
102
{ACAD_REACTORS
330
21A3
102
}
330
21A3
100
AcDbXrecord
 10
0.0
 20
0.0
 30
0.0
  0
XRECORD
  5
21C2
102
{ACAD_REACTORS
330
21A3
102
}
330
21A3
100
AcDbXrecord
 10
0.0
 20
0.0
 30
0.0
  0
XRECORD
  5
21C3
102
{ACAD_REACTORS
330
21A3
102
}
330
21A3
100
AcDbXrecord
 10
0.0
 20
0.0
 30
0.0
  0
LAYER_INDEX
  5
12C
102
{ACAD_REACTORS
330
12B
102
}
330
12B
100
AcDbIndex
 40
2451894.475121296
100
AcDbLayerIndex
  8
0
360
12D
 90
        0
  8
Defpoints
360
142E
 90
        0
  8
AM_5
360
142F
 90
        0
  8
AM_WORK
360
1430
 90
        0
  8
AM_VIEWS
360
1431
 90
        0
  8
AM_VIS
360
1432
 90
        0
  8
AM_HID
360
1433
 90
        0
  8
AM_PARDIM
360
1434
 90
        0
  8
AM_7
360
1435
 90
        0
  8
AM_10
360
1436
 90
        0
  8
AM_6
360
1437
 90
        0
  8
AM_8
360
1438
 90
        0
  8
AMV_2_HATCH
360
1439
 90
        0
  8
AM_REFDIM
360
143A
 90
        0
  8
AM_FR
360
1AA9
 90
        1
  8
10
360
1EBB
 90
        0
  8
11
360
1EBC
 90
        0
  8
9
360
1F91
 90
        0
  0
ACAD_PROXY_OBJECT
  5
1A1
102
{ACAD_REACTORS
330
1A0
102
}
330
1A0
100
AcDbProxyObject
 90
      499
 91
      725
 93
      139
310
057356C1D35406406AA8FFFFFFFF09AA4054
330
1A
330
0
330
0
 94
        0
1001
ACAD
1000
AcadProxyRoundTripData
1071
      575
1071
   393239
1070
     0
  0
ACAD_PROXY_OBJECT
  5
15F
102
{ACAD_REACTORS
330
143
102
}
330
143
100
AcDbProxyObject
 90
      499
 91
      725
 93
      929
310
4D4B81E85EB51B8BE3FD04414E5349405901F2E07A17AD46E2F8FD2208321C82C6DAA6EAE4CCA8CAF0E8A6E8C88120284A0B1B6A321A329BA3220480A1A82C6DAAECAD8C8D2DCCEA6E8C8812028420B1B6A4B229BA3220480A1682C6DA88C2E8EADAA6E8C88120284A0B1B6A127A6A9BA322048080
340
14B
360
1A8
360
1A9
360
1AA
360
1AB
360
1AC
360
1AD
 94
        0
1001
ACAD
1000
AcadProxyRoundTripData
1071
      553
1071
   393239
1070
     0
  0
ACAD_PROXY_OBJECT
  5
160
102
{ACAD_REACTORS
330
143
102
}
330
143
100
AcDbProxyObject
 90
      499
 91
      725
 93
      921
310
4D40000000000000C40D03425349405901F000000000000031032228321C82C6DAA6EAE4CCA8CAF0E8A6E8C88120284A0B1B6A321A329BA3220480A1A82C6DAAECAD8C8D2DCCEA6E8C8812028420B1B6A4B229BA3220480A1682C6DA88C2E8EADAA6E8C88120284A0B1B6A127A6A9BA3220480C1
340
14F
360
1AE
360
1AF
360
1B0
360
1B1
360
1B2
360
1B3
 94
        0
1001
ACAD
1000
AcadProxyRoundTripData
1071
      554
1071
   393239
1070
     0
  0
ACAD_PROXY_OBJECT
  5
161
102
{ACAD_REACTORS
330
143
102
}
330
143
100
AcDbProxyObject
 90
      499
 91
      725
 93
     1039
310
4D40000000000000C40D0344494E405901F0000000000000310322283A1682DAC8E88AC8CECAA6E8C8812028720B1B6A9BAB9332A32BC3A29BA3220480A1282C6DA8C868CA6E8C88120286A0B1B6ABB2B63234B733A9BA3220480A1082C6DA92C8A6E8C88120285A0B1B6A230BA3AB6A9BA3220480A1282C6DA849E9AA6E8C
310
881202
340
154
360
1B4
360
1B5
360
1B6
360
1B7
360
1B8
360
1B9
360
1BA
 94
        0
1001
ACAD
1000
AcadProxyRoundTripData
1071
      555
1071
   393239
1070
     0
  0
ACAD_PROXY_OBJECT
  5
162
102
{ACAD_REACTORS
330
143
102
}
330
143
100
AcDbProxyObject
 90
      499
 91
      725
 93
      921
310
4D40000000000000C40D0349534F405901F000000000000031032228321C82C6DAA6EAE4CCA8CAF0E8A6E8C88120284A0B1B6A321A329BA3220480A1A82C6DAAECAD8C8D2DCCEA6E8C8812028420B1B6A4B229BA3220480A1682C6DA88C2E8EADAA6E8C88120284A0B1B6A127A6A9BA3220480C1
340
159
360
1BB
360
1BC
360
1BD
360
1BE
360
1BF
360
1C0
 94
        0
1001
ACAD
1000
AcadProxyRoundTripData
1071
      556
1071
   393239
1070
     0
  0
ACAD_PROXY_OBJECT
  5
15E
102
{ACAD_REACTORS
330
143
102
}
330
143
100
AcDbProxyObject
 90
      499
 91
      725
 93
      921
310
4D43333333333330940D034A4953405901F0CCCCCCCCCCCC25032228321C82C6DAA6EAE4CCA8CAF0E8A6E8C88120284A0B1B6A321A329BA3220480A1A82C6DAAECAD8C8D2DCCEA6E8C8812028420B1B6A4B229BA3220480A1682C6DA88C2E8EADAA6E8C88120284A0B1B6A127A6A9BA3220480C1
340
147
360
1A2
360
1A3
360
1A4
360
1A5
360
1A6
360
1A7
 94
        0
1001
ACAD
1000
AcadProxyRoundTripData
1071
      552
1071
   393239
1070
     0
  0
ACAD_PROXY_OBJECT
  5
173
102
{ACAD_REACTORS
330
172
102
}
330
172
100
AcDbProxyObject
 90
      499
 91
      725
 93
     2672
310
4050B44574753455454494E4753A0E8482A68AA6A88882A0692A69E84A1A0A723A0A92920ACA0A8419983E1A1ABE1B1820C868A9C829C8E82A12686AF87260F862666A8321A2A72224A0A50000000000000122020E868A9C889282A682A106260F86460F8666083A1A2A72224A9AA250000000000000042020C868A9C988A9
310
C94000000000000048808321A2A727A32325000000000000012202128698929C82A4A482B282A106260F86460F866608421A624A722AA2CA820A82AC2624A722A1886A48A82A88A8EA49EAAA0A60C008000109445747555343414C454A141D31054D513D092905404C1084D414B45564945574FD02419491559254D2505404
310
C1055343414C4541503313A314214D510539110549110540D254D3D0954494D455354414D504A0FC0BCAF11B13734141D5915494D253D3905414C4D4B8C0C1107B44574753455454494E4753454E447D00
 94
        0
1001
ACAD
1000
AcadProxyRoundTripData
1071
      561
1071
   393239
1070
     0
  0
ACAD_PROXY_OBJECT
  5
17D
102
{ACAD_REACTORS
330
172
102
}
330
172
100
AcDbProxyObject
 90
      499
 91
      725
 93
      852
310
4050D5452414E5353455454494E4753A2488A482AE929C8EA8A4829CA69882A8929E9C0C00800050D4F524947494E414C4C595F4F4E0600400008529A7AAA921A2A620A723A0A81A2A72AA12AAA0A48AA68AA4AC8A0C0080001107B44574753455454494E4753454E447D6
 94
        0
1001
ACAD
1000
AcadProxyRoundTripData
1071
      561
1071
   393239
1070
     0
  0
IDBUFFER
  5
12D
330
0
100
AcDbIdBuffer
  0
IDBUFFER
  5
142E
330
0
100
AcDbIdBuffer
  0
IDBUFFER
  5
142F
330
0
100
AcDbIdBuffer
  0
IDBUFFER
  5
1430
330
0
100
AcDbIdBuffer
  0
IDBUFFER
  5
1431
330
0
100
AcDbIdBuffer
  0
IDBUFFER
  5
1432
330
0
100
AcDbIdBuffer
  0
IDBUFFER
  5
1433
330
0
100
AcDbIdBuffer
  0
IDBUFFER
  5
1434
330
0
100
AcDbIdBuffer
  0
IDBUFFER
  5
1435
330
0
100
AcDbIdBuffer
  0
IDBUFFER
  5
1436
330
0
100
AcDbIdBuffer
  0
IDBUFFER
  5
1437
330
0
100
AcDbIdBuffer
  0
IDBUFFER
  5
1438
330
0
100
AcDbIdBuffer
  0
IDBUFFER
  5
1439
330
0
100
AcDbIdBuffer
  0
IDBUFFER
  5
143A
330
0
100
AcDbIdBuffer
  0
IDBUFFER
  5
1AA9
330
0
100
AcDbIdBuffer
330
1817
  0
IDBUFFER
  5
1EBB
330
0
100
AcDbIdBuffer
  0
IDBUFFER
  5
1EBC
330
0
100
AcDbIdBuffer
  0
IDBUFFER
  5
1F91
330
0
100
AcDbIdBuffer
  0
ACAD_PROXY_OBJECT
  5
1A8
330
15F
100
AcDbProxyObject
 90
      499
 91
      725
 93
       96
310
4D420E80A0280A0280A0280800
 94
        0
1001
ACAD
1000
AcadProxyRoundTripData
1071
      582
1071
   393239
1070
     0
  0
ACAD_PROXY_OBJECT
  5
1A9
330
15F
100
AcDbProxyObject
 90
      499
 91
      725
 93
      332
310
4D50E4050140501405014050140501405014050142501405014050140501405012000000000000000404
340
14C
 94
        0
1001
ACAD
1000
AcadProxyRoundTripData
1071
      583
1071
   393239
1070
     0
  0
ACAD_PROXY_OBJECT
  5
1AA
330
15F
100
AcDbProxyObject
 90
      499
 91
      725
 93
      402
310
4D4C199999999999E99F91F4050140501405014050140501405014050140501405014050140501405014050140501405014044
340
0
 94
        0
1001
ACAD
1000
AcadProxyRoundTripData
1071
      584
1071
   393239
1070
     0
  0
ACAD_PROXY_OBJECT
  5
1AB
330
15F
100
AcDbProxyObject
 90
      499
 91
      725
 93
       10
310
4D41
 94
        0
1001
ACAD
1000
AcadProxyRoundTripData
1071
      585
1071
   393239
1070
     0
  0
ACAD_PROXY_OBJECT
  5
1AC
330
15F
100
AcDbProxyObject
 90
      499
 91
      725
 93
      351
310
4D6290EA22A7D90F49F9353333333333727E4D4CCCCCCCCCDC9F9353333333333927E4D4CCCCCCCCCDC9FA02
340
14D
340
14E
 94
        0
1001
ACAD
1000
AcadProxyRoundTripData
1071
      586
1071
   393239
1070
     0
  0
ACAD_PROXY_OBJECT
  5
1AD
330
15F
100
AcDbProxyObject
 90
      499
 91
      725
 93
     2722
310
4D506411255115350141125D195B50140501406901410BA5C2E97CBE5E23FA40503515459405035174794050240501406405041349A4F2590CB64FE9014213505511549250531014213585D195C9A585B10147501902A450BA5C2E97CBE5F23FA405044E4F5445405044E6F74654051D40640E91E2E970BA5F2F97C8FD0141
310
D050D7D393D511501901419591539113D49014195995B991BDC90147501904A4A0BA5C2E97CBE5F23F4050C41435F564E445F4C4142454C406405044E414D45405044E616D654051C40641693C2E970BA5F2F94090101431050D7D11154D0D49254151390190141910408B81E85EB51B8CE3F41C0101901901901902901406
310
9010320881A068120480A032208521122080D21480D211480A14852148551A1E0000000000000433A4C415946525A405024043BDF4F8D976EA23F0EF7D3E365DBA88FCB81E85EB51B8BE3FC80D06901409034150490188
340
0
 94
        0
1001
ACAD
1000
AcadProxyRoundTripData
1071
      587
1071
   393239
1070
     0
  0
ACAD_PROXY_OBJECT
  5
1AE
330
160
100
AcDbProxyObject
 90
      499
 91
      725
 93
       86
310
4D420C80A0280A0280A020
 94
        0
1001
ACAD
1000
AcadProxyRoundTripData
1071
      588
1071
   393239
1070
     0
  0
ACAD_PROXY_OBJECT
  5
1AF
330
160
100
AcDbProxyObject
 90
      499
 91
      725
 93
      282
310
4D50E405014050140501405014050140501405014110140501404F000000000000001005
340
150
 94
        0
1001
ACAD
1000
AcadProxyRoundTripData
1071
      589
1071
   393239
1070
     0
  0
ACAD_PROXY_OBJECT
  5
1B0
330
160
100
AcDbProxyObject
 90
      499
 91
      725
 93
      496
310
4D68666666666667A67E199999999999E99FD22405014050140501405014050140501405014050140501405014050140501405014050140501405014050141
340
151
 94
        0
1001
ACAD
1000
AcadProxyRoundTripData
1071
      590
1071
   393239
1070
     0
  0
ACAD_PROXY_OBJECT
  5
1B1
330
160
100
AcDbProxyObject
 90
      499
 91
      725
 93
       10
310
4D41
 94
        0
1001
ACAD
1000
AcadProxyRoundTripData
1071
      591
1071
   393239
1070
     0
  0
ACAD_PROXY_OBJECT
  5
1B2
330
160
100
AcDbProxyObject
 90
      499
 91
      725
 93
      351
310
4D6290EA22A7D90F49F800000000000010800000000000000420000000000000028800000000000000420202
340
152
340
153
 94
        0
1001
ACAD
1000
AcadProxyRoundTripData
1071
      592
1071
   393239
1070
     0
  0
ACAD_PROXY_OBJECT
  5
1B3
330
160
100
AcDbProxyObject
 90
      499
 91
      725
 93
     2722
310
4D506411255115350141125D195B501405014069014100000000000002E40A4050351545940503517479405024050140640504000000000000091029014213505511549250531014213585D195C9A585B10147501902A4500000000000003E40A405044E4F5445405044E6F74654051D40640E91E0000000000000F9010141
310
D050D7D393D511501901419591539113D49014195995B991BDC90147501904A4A00000000000003E404050C41435F564E445F4C4142454C406405044E414D45405044E616D654051C40641693C0000000000001390101431050D7D11154D0D49254151390190141911408000000000000144041C0101901901901902901406
310
9010020881A068120480A032208521122080D21480D211480A148521485508400000040000000983BC5070CB0290A40502404CDCCCCCCCCCCEC3F3373333333333B0FC0000000000000C40C80D06901409034150490188
340
0
 94
        0
1001
ACAD
1000
AcadProxyRoundTripData
1071
      593
1071
   393239
1070
     0
  0
ACAD_PROXY_OBJECT
  5
1B4
330
161
100
AcDbProxyObject
 90
      499
 91
      725
 93
       12
310
4D41
 94
        0
1001
ACAD
1000
AcadProxyRoundTripData
1071
      594
1071
   393239
1070
     0
  0
ACAD_PROXY_OBJECT
  5
1B5
330
161
100
AcDbProxyObject
 90
      499
 91
      725
 93
       96
310
4D6A0E80A0280A0280A0280E00
 94
        0
1001
ACAD
1000
AcadProxyRoundTripData
1071
      595
1071
   393239
1070
     0
  0
ACAD_PROXY_OBJECT
  5
1B6
330
161
100
AcDbProxyObject
 90
      499
 91
      725
 93
      272
310
4D50E4050140501405014050140501405014050140D01405012C000000000000004000
340
155
 94
        0
1001
ACAD
1000
AcadProxyRoundTripData
1071
      596
1071
   393239
1070
     0
  0
ACAD_PROXY_OBJECT
  5
1B7
330
161
100
AcDbProxyObject
 90
      499
 91
      725
 93
      506
310
4D68666666666667A67E199999999999E99FD2340501405014050140501405014050140501405014050140501405014050140501405014050140501405014051
340
156
 94
        0
1001
ACAD
1000
AcadProxyRoundTripData
1071
      597
1071
   393239
1070
     0
  0
ACAD_PROXY_OBJECT
  5
1B8
330
161
100
AcDbProxyObject
 90
      499
 91
      725
 93
       10
310
4D41
 94
        0
1001
ACAD
1000
AcadProxyRoundTripData
1071
      598
1071
   393239
1070
     0
  0
ACAD_PROXY_OBJECT
  5
1B9
330
161
100
AcDbProxyObject
 90
      499
 91
      725
 93
      351
310
4D6290EA22A7D90F49F800000000000010800000000000000420000000000000028800000000000000420202
340
157
340
158
 94
        0
1001
ACAD
1000
AcadProxyRoundTripData
1071
      599
1071
   393239
1070
     0
  0
ACAD_PROXY_OBJECT
  5
1BA
330
161
100
AcDbProxyObject
 90
      499
 91
      725
 93
     3300
310
4D508411255115350141125D195B501405014069014180000000000002E40A40503515459405035174794050240501406405040000000000000910290141511154D0D490142D1195CD8DC9A5C1D1A5BDB90147501902A51800000000008051404050C41435F44455343524950544E406405085354414E44415244405085374
310
616E646172644051D40640E92D000000000020119029014213505511549250531014213585D195C9A585B10147501904A4A0713D0AD7A3704540A405044E4F5445405044E6F74654051D40641691E0000000000000F9010141D050D7D393D511501901419591539113D49014195995B991BDC90147501906A4A00000000000
310
003E404050C41435F564E445F4C4142454C406405044E414D45405044E616D654051C40641E93C0000000000001390290142111408000000000000144041C01019019019019029014069018020881A068120480A032208521122080D21480D211480A14852148550C400000080080000A03CC507A03CC50740502404CDCCCC
310
CCCCCCEC3F3373333333333B0FC0000000000000C40C80D0590140D044164066
340
0
 94
        0
1001
ACAD
1000
AcadProxyRoundTripData
1071
      600
1071
   393239
1070
     0
  0
ACAD_PROXY_OBJECT
  5
1BB
330
162
100
AcDbProxyObject
 90
      499
 91
      725
 93
       96
310
4D6A0E80A0280A0280A0280E00
 94
        0
1001
ACAD
1000
AcadProxyRoundTripData
1071
      601
1071
   393239
1070
     0
  0
ACAD_PROXY_OBJECT
  5
1BC
330
162
100
AcDbProxyObject
 90
      499
 91
      725
 93
      272
310
4D50E4050140501405014050140501405014050140D01405012C000000000000004000
340
15A
 94
        0
1001
ACAD
1000
AcadProxyRoundTripData
1071
      602
1071
   393239
1070
     0
  0
ACAD_PROXY_OBJECT
  5
1BD
330
162
100
AcDbProxyObject
 90
      499
 91
      725
 93
      496
310
4D68666666666667A67E199999999999E99FD2240501405014050140501405014050140501405014050140501405014050140501405014050140501405012C
340
15B
 94
        0
1001
ACAD
1000
AcadProxyRoundTripData
1071
      603
1071
   393239
1070
     0
  0
ACAD_PROXY_OBJECT
  5
1BE
330
162
100
AcDbProxyObject
 90
      499
 91
      725
 93
       10
310
4D41
 94
        0
1001
ACAD
1000
AcadProxyRoundTripData
1071
      604
1071
   393239
1070
     0
  0
ACAD_PROXY_OBJECT
  5
1BF
330
162
100
AcDbProxyObject
 90
      499
 91
      725
 93
      351
310
4D6290EA22A7D90F49F800000000000010800000000000000420000000000000028800000000000000420202
340
15C
340
15D
 94
        0
1001
ACAD
1000
AcadProxyRoundTripData
1071
      605
1071
   393239
1070
     0
  0
ACAD_PROXY_OBJECT
  5
1C0
330
162
100
AcDbProxyObject
 90
      499
 91
      725
 93
     3300
310
4D508411255115350141125D195B501405014069014180000000000002E40A40503515459405035174794050240501406405040000000000000910290141511154D0D490142D1195CD8DC9A5C1D1A5BDB90147501902A51800000000008051404050C41435F44455343524950544E406405085354414E44415244405085374
310
616E646172644051D40640E92D000000000020119029014213505511549250531014213585D195C9A585B10147501904A4A0713D0AD7A3704540A405044E4F5445405044E6F74654051D40641691E0000000000000F9010141D050D7D393D511501901419591539113D49014195995B991BDC90147501906A4A00000000000
310
003E404050C41435F564E445F4C4142454C406405044E414D45405044E616D654051C40641E93C0000000000001390290142111408000000000000144041C01019019019019029014069010020881A068120480A032208521122080D21480D211480A1485214855161B20C2A0108A0287C6C830A646C830A40502404CDCCCC
310
CCCCCCEC3F3373333333333B0FC0000000000000C40C80D0590140D044164066
340
0
 94
        0
1001
ACAD
1000
AcadProxyRoundTripData
1071
      606
1071
   393239
1070
     0
  0
ACAD_PROXY_OBJECT
  5
1A2
330
15E
100
AcDbProxyObject
 90
      499
 91
      725
 93
       86
310
4D6A0C80A0280A0280A030
 94
        0
1001
ACAD
1000
AcadProxyRoundTripData
1071
      576
1071
   393239
1070
     0
  0
ACAD_PROXY_OBJECT
  5
1A3
330
15E
100
AcDbProxyObject
 90
      499
 91
      725
 93
      272
310
4D50E4050140501405014050140501405014050140D014050120000000000000004040
340
148
 94
        0
1001
ACAD
1000
AcadProxyRoundTripData
1071
      577
1071
   393239
1070
     0
  0
ACAD_PROXY_OBJECT
  5
1A4
330
15E
100
AcDbProxyObject
 90
      499
 91
      725
 93
      322
310
4D4C199999999999E99F91740501405014050140501405014050140501405014050140501405014040
340
0
 94
        0
1001
ACAD
1000
AcadProxyRoundTripData
1071
      578
1071
   393239
1070
     0
  0
ACAD_PROXY_OBJECT
  5
1A5
330
15E
100
AcDbProxyObject
 90
      499
 91
      725
 93
       10
310
4D41
 94
        0
1001
ACAD
1000
AcadProxyRoundTripData
1071
      579
1071
   393239
1070
     0
  0
ACAD_PROXY_OBJECT
  5
1A6
330
15E
100
AcDbProxyObject
 90
      499
 91
      725
 93
      351
310
4D6290EA22A7D90F49F800000000000010800000000000000420000000000000028800000000000000420202
340
149
340
14A
 94
        0
1001
ACAD
1000
AcadProxyRoundTripData
1071
      580
1071
   393239
1070
     0
  0
ACAD_PROXY_OBJECT
  5
1A7
330
15E
100
AcDbProxyObject
 90
      499
 91
      725
 93
     2658
310
4D506411255115350141125D195B501405014069014100000000000002E40A4050351545940503517479405024050140640504000000000000091029014213505511549250531014213585D195C9A585B10147501902A4500000000000003E40A405044E4F5445405044E6F74654051D40640E91E0000000000000F9010141
310
D050D7D393D511501901419591539113D49014195995B991BDC90147501904A4A00000000000003E404050C41435F564E445F4C4142454C406405044E414D45405044E616D654051C40641693C0000000000001390101431050D7D11154D0D49254151390190141911408000000000000124041C0101901901901902901406
310
9014020881A068120480A032208521122080D21480D211480A14852148558FFFFFFFF0000000040502404CDCCCCCCCCCCEC3F3373333333333B0FC3333333333330940C80D06901409034150490190
340
0
 94
        0
1001
ACAD
1000
AcadProxyRoundTripData
1071
      581
1071
   393239
1070
     0
  0
ENDSEC
  0
EOF
